  0
SECTION
  2
HEADER
  9
$ACADVER
  1
AC1015
  9
$ACADMAINTVER
 70
     6
  9
$DWGCODEPAGE
  3
ANSI_1252
  9
$INSBASE
 10
0.0
 20
0.0
 30
0.0
  9
$EXTMIN
 10
0.0
 20
0.0
 30
0.0
  9
$EXTMAX
 10
2940.0
 20
2079.0
 30
0.0
  9
$LIMMIN
 10
0.0
 20
0.0
  9
$LIMMAX
 10
2940.0
 20
2079.0
  9
$ORTHOMODE
 70
     0
  9
$REGENMODE
 70
     1
  9
$FILLMODE
 70
     1
  9
$QTEXTMODE
 70
     0
  9
$MIRRTEXT
 70
     1
  9
$LTSCALE
 40
7.0
  9
$ATTMODE
 70
     1
  9
$TEXTSIZE
 40
24.5
  9
$TRACEWID
 40
1.0
  9
$TEXTSTYLE
  7
STANDARD
  9
$CLAYER
  8
0
  9
$CELTYPE
  6
ByLayer
  9
$CECOLOR
 62
   256
  9
$CELTSCALE
 40
1.0
  9
$DISPSILH
 70
     0
  9
$DIMSCALE
 40
1.0
  9
$DIMASZ
 40
23.114
  9
$DIMEXO
 40
7.0
  9
$DIMDLI
 40
3.75
  9
$DIMRND
 40
0.0
  9
$DIMDLE
 40
0.0
  9
$DIMEXE
 40
7.0
  9
$DIMTP
 40
0.0
  9
$DIMTM
 40
0.0
  9
$DIMTXT
 40
24.5
  9
$DIMCEN
 40
2.5
  9
$DIMTSZ
 40
0.0
  9
$DIMTOL
 70
     0
  9
$DIMLIM
 70
     0
  9
$DIMTIH
 70
     1
  9
$DIMTOH
 70
     1
  9
$DIMSE1
 70
     0
  9
$DIMSE2
 70
     0
  9
$DIMTAD
 70
     1
  9
$DIMZIN
 70
     0
  9
$DIMBLK
  1

  9
$DIMASO
 70
     1
  9
$DIMSHO
 70
     1
  9
$DIMPOST
  1

  9
$DIMAPOST
  1

  9
$DIMALT
 70
     0
  9
$DIMALTD
 70
     3
  9
$DIMALTF
 40
0.0393700787
  9
$DIMLFAC
 40
1.0
  9
$DIMTOFL
 70
     1
  9
$DIMTVP
 40
0.0
  9
$DIMTIX
 70
     0
  9
$DIMSOXD
 70
     0
  9
$DIMSAH
 70
     0
  9
$DIMBLK1
  1

  9
$DIMBLK2
  1

  9
$DIMSTYLE
  2
ISO-25
  9
$DIMCLRD
 70
     0
  9
$DIMCLRE
 70
     0
  9
$DIMCLRT
 70
     0
  9
$DIMTFAC
 40
1.0
  9
$DIMGAP
 40
21.0
  9
$DIMJUST
 70
     0
  9
$DIMSD1
 70
     0
  9
$DIMSD2
 70
     0
  9
$DIMTOLJ
 70
     0
  9
$DIMTZIN
 70
     0
  9
$DIMALTZ
 70
     0
  9
$DIMALTTZ
 70
     0
  9
$DIMUPT
 70
     0
  9
$DIMDEC
 70
     2
  9
$DIMTDEC
 70
     2
  9
$DIMALTU
 70
     2
  9
$DIMALTTD
 70
     3
  9
$DIMTXSTY
  7
STANDARD
  9
$DIMAUNIT
 70
     0
  9
$DIMADEC
 70
     2
  9
$DIMALTRND
 40
0.0
  9
$DIMAZIN
 70
     0
  9
$DIMDSEP
 70
    44
  9
$DIMATFIT
 70
     3
  9
$DIMFRAC
 70
     0
  9
$DIMLDRBLK
  1

  9
$DIMLUNIT
 70
     2
  9
$DIMLWD
 70
    -2
  9
$DIMLWE
 70
    -2
  9
$DIMTMOVE
 70
     0
  9
$LUNITS
 70
     2
  9
$LUPREC
 70
     2
  9
$SKETCHINC
 40
1.0
  9
$FILLETRAD
 40
10.0
  9
$AUNITS
 70
     0
  9
$AUPREC
 70
     2
  9
$MENU
  1
.
  9
$ELEVATION
 40
0.0
  9
$PELEVATION
 40
0.0
  9
$THICKNESS
 40
0.0
  9
$LIMCHECK
 70
     0
  9
$CHAMFERA
 40
0.0
  9
$CHAMFERB
 40
0.0
  9
$CHAMFERC
 40
0.0
  9
$CHAMFERD
 40
0.0
  9
$SKPOLY
 70
     0
  9
$TDCREATE
 40
2460077.46535809
  9
$TDUCREATE
 40
2460077.382024757
  9
$TDUPDATE
 40
2460077.465362187
  9
$TDUUPDATE
 40
2460077.382028854
  9
$TDINDWG
 40
0.0000000116
  9
$TDUSRTIMER
 40
0.0000000116
  9
$USRTIMER
 70
     1
  9
$ANGBASE
 50
0.0
  9
$ANGDIR
 70
     0
  9
$PDMODE
 70
     0
  9
$PDSIZE
 40
-1.0
  9
$PLINEWID
 40
0.0
  9
$SPLFRAME
 70
     0
  9
$SPLINETYPE
 70
     6
  9
$SPLINESEGS
 70
     8
  9
$HANDSEED
  5
6C1
  9
$SURFTAB1
 70
     6
  9
$SURFTAB2
 70
     6
  9
$SURFTYPE
 70
     6
  9
$SURFU
 70
     6
  9
$SURFV
 70
     6
  9
$UCSBASE
  2

  9
$UCSNAME
  2

  9
$UCSORG
 10
0.0
 20
0.0
 30
0.0
  9
$UCSXDIR
 10
1.0
 20
0.0
 30
0.0
  9
$UCSYDIR
 10
0.0
 20
1.0
 30
0.0
  9
$UCSORTHOREF
  2

  9
$UCSORTHOVIEW
 70
     0
  9
$UCSORGTOP
 10
0.0
 20
0.0
 30
0.0
  9
$UCSORGBOTTOM
 10
0.0
 20
0.0
 30
0.0
  9
$UCSORGLEFT
 10
0.0
 20
0.0
 30
0.0
  9
$UCSORGRIGHT
 10
0.0
 20
0.0
 30
0.0
  9
$UCSORGFRONT
 10
0.0
 20
0.0
 30
0.0
  9
$UCSORGBACK
 10
0.0
 20
0.0
 30
0.0
  9
$PUCSBASE
  2

  9
$PUCSNAME
  2

  9
$PUCSORG
 10
0.0
 20
0.0
 30
0.0
  9
$PUCSXDIR
 10
1.0
 20
0.0
 30
0.0
  9
$PUCSYDIR
 10
0.0
 20
1.0
 30
0.0
  9
$PUCSORTHOREF
  2

  9
$PUCSORTHOVIEW
 70
     0
  9
$PUCSORGTOP
 10
0.0
 20
0.0
 30
0.0
  9
$PUCSORGBOTTOM
 10
0.0
 20
0.0
 30
0.0
  9
$PUCSORGLEFT
 10
0.0
 20
0.0
 30
0.0
  9
$PUCSORGRIGHT
 10
0.0
 20
0.0
 30
0.0
  9
$PUCSORGFRONT
 10
0.0
 20
0.0
 30
0.0
  9
$PUCSORGBACK
 10
0.0
 20
0.0
 30
0.0
  9
$USERI1
 70
     0
  9
$USERI2
 70
     0
  9
$USERI3
 70
     0
  9
$USERI4
 70
     0
  9
$USERI5
 70
     0
  9
$USERR1
 40
0.0
  9
$USERR2
 40
0.0
  9
$USERR3
 40
0.0
  9
$USERR4
 40
0.0
  9
$USERR5
 40
0.0
  9
$WORLDVIEW
 70
     1
  9
$SHADEDGE
 70
     3
  9
$SHADEDIF
 70
    70
  9
$TILEMODE
 70
     1
  9
$MAXACTVP
 70
    64
  9
$PINSBASE
 10
0.0
 20
0.0
 30
0.0
  9
$PLIMCHECK
 70
     0
  9
$PEXTMIN
 10
1.0000000000E+20
 20
1.0000000000E+20
 30
1.0000000000E+20
  9
$PEXTMAX
 10
-1.0000000000E+20
 20
-1.0000000000E+20
 30
-1.0000000000E+20
  9
$PLIMMIN
 10
0.0
 20
0.0
  9
$PLIMMAX
 10
420.0
 20
297.0
  9
$UNITMODE
 70
     0
  9
$VISRETAIN
 70
     1
  9
$PLINEGEN
 70
     0
  9
$PSLTSCALE
 70
     1
  9
$TREEDEPTH
 70
  3020
  9
$CMLSTYLE
  2
Standard
  9
$CMLJUST
 70
     0
  9
$CMLSCALE
 40
20.0
  9
$PROXYGRAPHICS
 70
     1
  9
$MEASUREMENT
 70
     1
  9
$CELWEIGHT
370
    -1
  9
$ENDCAPS
280
     0
  9
$JOINSTYLE
280
     0
  9
$LWDISPLAY
290
     1
  9
$INSUNITS
 70
     4
  9
$HYPERLINKBASE
  1

  9
$STYLESHEET
  1

  9
$XEDIT
290
     1
  9
$CEPSNTYPE
380
     0
  9
$PSTYLEMODE
290
     1
  9
$FINGERPRINTGUID
  2
{d5c26e76-68c7-499d-897b-3a686d7217a7}
  9
$VERSIONGUID
  2
{FAEB1C32-E019-11D5-929B-00C0DF256EC4}
  9
$EXTNAMES
290
     1
  9
$PSVPSCALE
 40
0.0
  9
$OLESTARTUP
290
     0
  0
ENDSEC
  0
SECTION
  2
CLASSES
  0
CLASS
  1
ACDBDICTIONARYWDFLT
  2
AcDbDictionaryWithDefault
  3
ObjectDBX Classes
 90
        0
280
     0
281
     0
  0
CLASS
  1
VISUALSTYLE
  2
AcDbVisualStyle
  3
ObjectDBX Classes
 90
     4095
280
     0
281
     0
  0
CLASS
  1
MATERIAL
  2
AcDbMaterial
  3
ObjectDBX Classes
 90
     1153
280
     0
281
     0
  0
CLASS
  1
SCALE
  2
AcDbScale
  3
ObjectDBX Classes
 90
     1153
280
     0
281
     0
  0
CLASS
  1
TABLESTYLE
  2
AcDbTableStyle
  3
ObjectDBX Classes
 90
     4095
280
     0
281
     0
  0
CLASS
  1
MLEADERSTYLE
  2
AcDbMLeaderStyle
  3
ACDB_MLEADERSTYLE_CLASS
 90
     4095
280
     0
281
     0
  0
CLASS
  1
SUN
  2
AcDbSun
  3
SCENEOE
 90
     1153
280
     0
281
     0
  0
CLASS
  1
ACDBPLACEHOLDER
  2
AcDbPlaceHolder
  3
ObjectDBX Classes
 90
        0
280
     0
281
     0
  0
CLASS
  1
LAYOUT
  2
AcDbLayout
  3
ObjectDBX Classes
 90
        0
280
     0
281
     0
  0
ENDSEC
  0
SECTION
  2
TABLES
  0
TABLE
  2
VPORT
  5
8
330
0
100
AcDbSymbolTable
 70
     1
  0
VPORT
  5
29
330
8
100
AcDbSymbolTableRecord
100
AcDbViewportTableRecord
  2
*Active
 70
     0
 10
0.0
 20
0.0
 11
1.0
 21
1.0
 12
1470.0
 22
1039.5
 13
0.0
 23
0.0
 14
10.0
 24
10.0
 15
10.0
 25
10.0
 16
0.0
 26
0.0
 36
1.0
 17
0.0
 27
0.0
 37
0.0
 40
2079.0
 41
1.4141414141
 42
50.0
 43
0.0
 44
0.0
 50
0.0
 51
0.0
 71
     0
 72
  2000
 73
     1
 74
     3
 75
     0
 76
     0
 77
     0
 78
     0
281
     0
 65
     1
110
0.0
120
0.0
130
0.0
111
1.0
121
0.0
131
0.0
112
0.0
122
1.0
132
0.0
 79
     0
146
0.0
  0
ENDTAB
  0
TABLE
  2
LTYPE
  5
5
330
0
100
AcDbSymbolTable
 70
     6
  0
LTYPE
  5
14
330
5
100
AcDbSymbolTableRecord
100
AcDbLinetypeTableRecord
  2
ByBlock
 70
     0
  3

 72
    65
 73
     0
 40
0.0
  0
LTYPE
  5
15
330
5
100
AcDbSymbolTableRecord
100
AcDbLinetypeTableRecord
  2
ByLayer
 70
     0
  3

 72
    65
 73
     0
 40
0.0
  0
LTYPE
  5
16
330
5
100
AcDbSymbolTableRecord
100
AcDbLinetypeTableRecord
  2
Continuous
 70
     0
  3
Solid line
 72
    65
 73
     0
 40
0.0
  0
LTYPE
  5
6E
330
5
100
AcDbSymbolTableRecord
100
AcDbLinetypeTableRecord
  2
HIDDEN
 70
     0
  3
Hidden __ __ __ __ __ __ __ __ __ __ __ __ __ __
 72
    65
 73
     2
 40
1.905
 49
1.27
 74
     0
 49
-0.635
 74
     0
  0
LTYPE
  5
6F
330
5
100
AcDbSymbolTableRecord
100
AcDbLinetypeTableRecord
  2
PHANTOM
 70
     0
  3
Phantom ______  __  __  ______  __  __  ______
 72
    65
 73
     6
 40
12.7
 49
6.35
 74
     0
 49
-1.27
 74
     0
 49
1.27
 74
     0
 49
-1.27
 74
     0
 49
1.27
 74
     0
 49
-1.27
 74
     0
  0
LTYPE
  5
70
330
5
100
AcDbSymbolTableRecord
100
AcDbLinetypeTableRecord
  2
CENTER
 70
     0
  3
Center ____ _ ____ _ ____ _ ____ _ ____ _ ____
 72
    65
 73
     4
 40
10.16
 49
6.35
 74
     0
 49
-1.27
 74
     0
 49
1.27
 74
     0
 49
-1.27
 74
     0
  0
LTYPE
  5
71
330
5
100
AcDbSymbolTableRecord
100
AcDbLinetypeTableRecord
  2
CENTERX2
 70
     0
  3
Center (2x) ________  __  ________  __  _____
 72
    65
 73
     4
 40
20.32
 49
12.7
 74
     0
 49
-2.54
 74
     0
 49
2.54
 74
     0
 49
-2.54
 74
     0
  0
LTYPE
  5
72
330
5
100
AcDbSymbolTableRecord
100
AcDbLinetypeTableRecord
  2
DOT2
 70
     0
  3
Dot (.5x) ........................................
 72
    65
 73
     2
 40
0.635
 49
0.0
 74
     0
 49
-0.635
 74
     0
  0
ENDTAB
  0
TABLE
  2
LAYER
  5
2
330
0
100
AcDbSymbolTable
 70
     8
  0
LAYER
  5
10
330
2
100
AcDbSymbolTableRecord
100
AcDbLayerTableRecord
  2
0
 70
     0
 62
     7
  6
Continuous
370
    -3
390
F
  0
LAYER
  5
73
330
2
100
AcDbSymbolTableRecord
100
AcDbLayerTableRecord
  2
FORMAT
 70
     0
 62
     7
  6
Continuous
370
    -3
390
F
  0
LAYER
  5
74
330
2
100
AcDbSymbolTableRecord
100
AcDbLayerTableRecord
  2
VORLAGE
 70
     0
 62
     7
  6
Continuous
370
    -3
390
F
  0
LAYER
  5
75
330
2
100
AcDbSymbolTableRecord
100
AcDbLayerTableRecord
  2
1
 70
     0
 62
   179
  6
Continuous
370
    -3
390
F
  0
LAYER
  5
76
330
2
100
AcDbSymbolTableRecord
100
AcDbLayerTableRecord
  2
LAYER0
 70
     0
 62
     7
  6
Continuous
370
    -3
390
F
  0
LAYER
  5
77
330
2
100
AcDbSymbolTableRecord
100
AcDbLayerTableRecord
  2
BEMASSUNG
 70
     0
 62
     1
  6
Continuous
370
    -3
390
F
  0
LAYER
  5
78
330
2
100
AcDbSymbolTableRecord
100
AcDbLayerTableRecord
  2
ÄNDERUNG
 70
     0
 62
     1
  6
Continuous
370
    -3
390
F
  0
LAYER
  5
79
330
2
100
AcDbSymbolTableRecord
100
AcDbLayerTableRecord
  2
KENNZEICHNUNG
 70
     0
 62
     7
  6
Continuous
370
    -3
390
F
  0
ENDTAB
  0
TABLE
  2
STYLE
  5
3
330
0
100
AcDbSymbolTable
 70
     5
  0
STYLE
  5
11
330
3
100
AcDbSymbolTableRecord
100
AcDbTextStyleTableRecord
  2
STANDARD
 70
     0
 40
0.0
 41
1.0
 50
0.0
 71
     0
 42
24.5
  3
ARIAL.TTF
  4

1001
ACAD
1000
ARIAL
1071
       34
  0
STYLE
  5
8B
330
3
100
AcDbSymbolTableRecord
100
AcDbTextStyleTableRecord
  2
SLDTEXTSTYLE0
 70
     0
 40
0.0
 41
0.948
 50
0.0
 71
     0
 42
24.5
  3
ARIAL.TTF
  4

1001
ACAD
1000
Arial
1071
      290
  0
STYLE
  5
B2
330
3
100
AcDbSymbolTableRecord
100
AcDbTextStyleTableRecord
  2
SLDTEXTSTYLE1
 70
     0
 40
0.0
 41
1.0
 50
0.0
 71
     0
 42
24.5
  3
ARIALUNI.TTF
  4

1001
ACAD
1000
Arial Unicode MS
1071
 33554722
  0
STYLE
  5
B8
330
3
100
AcDbSymbolTableRecord
100
AcDbTextStyleTableRecord
  2
SLDTEXTSTYLE2
 70
     0
 40
0.0
 41
0.87
 50
0.0
 71
     0
 42
24.5
  3
ARIALN.TTF
  4

1001
ACAD
1000
Arial Narrow
1071
      290
  0
STYLE
  5
E7
330
3
100
AcDbSymbolTableRecord
100
AcDbTextStyleTableRecord
  2
SLDTEXTSTYLE3
 70
     0
 40
0.0
 41
0.948
 50
0.0
 71
     0
 42
24.5
  3
ARIALBD.TTF
  4

1001
ACAD
1000
Arial
1071
 33554722
  0
ENDTAB
  0
TABLE
  2
VIEW
  5
6
330
0
100
AcDbSymbolTable
 70
     0
  0
ENDTAB
  0
TABLE
  2
UCS
  5
7
330
0
100
AcDbSymbolTable
 70
     0
  0
ENDTAB
  0
TABLE
  2
APPID
  5
9
330
0
100
AcDbSymbolTable
 70
     1
  0
APPID
  5
12
330
9
100
AcDbSymbolTableRecord
100
AcDbRegAppTableRecord
  2
ACAD
 70
     0
  0
ENDTAB
  0
TABLE
  2
DIMSTYLE
  5
A
330
0
100
AcDbSymbolTable
 70
    11
100
AcDbDimStyleTable
  0
DIMSTYLE
105
27
330
A
100
AcDbSymbolTableRecord
100
AcDbDimStyleTableRecord
  2
ISO-25
 70
     0
 41
2.5
 42
0.625
 43
3.75
 44
1.25
 73
     0
 74
     0
 77
     1
 78
     8
140
2.5
141
2.5
143
0.0393700787
147
0.625
171
     3
172
     1
178
     0
271
     2
272
     2
274
     3
278
    44
283
     0
284
     8
340
11
  0
DIMSTYLE
105
1FF
102
{ACAD_REACTORS
330
1FE
330
216
330
220
330
22A
330
2E1
330
2EB
330
2F5
330
316
330
320
330
32A
330
334
330
33E
330
515
330
51E
330
528
102
}
330
A
100
AcDbSymbolTableRecord
100
AcDbDimStyleTableRecord
  2
SLDDIMSTYLE0
 70
     0
 41
23.114
 44
0.0
 45
0.000000001
 73
     0
 74
     0
 77
     1
 78
    12
 79
     3
140
24.5
147
6.125
173
     1
178
     0
271
     2
272
     2
276
     2
284
    12
340
8B
  0
DIMSTYLE
105
20A
102
{ACAD_REACTORS
330
209
330
2FE
330
30A
330
362
330
370
330
50A
102
}
330
A
100
AcDbSymbolTableRecord
100
AcDbDimStyleTableRecord
  2
SLDDIMSTYLE1
 70
     0
 41
23.114
 44
0.0
 45
0.000000001
 73
     0
 74
     0
 77
     1
 78
    12
 79
     3
140
24.5
147
6.125
172
     1
173
     1
178
     0
271
     2
272
     2
276
     2
284
    12
289
     0
340
8B
  0
DIMSTYLE
105
349
102
{ACAD_REACTORS
330
348
330
355
330
37B
102
}
330
A
100
AcDbSymbolTableRecord
100
AcDbDimStyleTableRecord
  2
SLDDIMSTYLE2
 70
     0
 41
23.114
 44
0.0
 45
0.000000001
 73
     0
 74
     0
 77
     1
 78
    12
 79
     3
140
24.5
147
6.125
172
     1
173
     1
178
     0
271
     0
272
     2
276
     2
284
    12
289
     0
340
8B
  0
DIMSTYLE
105
387
330
A
100
AcDbSymbolTableRecord
100
AcDbDimStyleTableRecord
  2
SLDDIMSTYLE3
 70
     0
 41
23.114
 44
0.0
 45
0.000000001
146
23.114
147
0.0
173
     1
178
     0
271
     0
272
     0
276
     2
340
11
  0
DIMSTYLE
105
4EF
102
{ACAD_REACTORS
330
4EE
330
4FF
102
}
330
A
100
AcDbSymbolTableRecord
100
AcDbDimStyleTableRecord
  2
SLDDIMSTYLE4
 70
     0
 41
7.112
 44
0.0
 45
0.000000001
 73
     0
 74
     0
 77
     1
 78
    12
 79
     3
140
17.9782307943
147
4.4945576986
173
     1
178
     0
271
     2
272
     2
276
     2
284
    12
340
8B
341
4F0
343
4F0
  0
DIMSTYLE
105
615
102
{ACAD_REACTORS
330
614
330
623
330
631
330
63D
330
690
102
}
330
A
100
AcDbSymbolTableRecord
100
AcDbDimStyleTableRecord
  2
SLDDIMSTYLE5
 70
     0
 41
23.114
 44
0.0
 45
0.000000001
 73
     0
 74
     0
 77
     1
 78
    12
 79
     3
140
24.5
144
0.7142857143
147
6.125
172
     1
173
     1
178
     0
271
     2
272
     2
276
     2
284
    12
289
     0
340
8B
  0
DIMSTYLE
105
64A
102
{ACAD_REACTORS
330
649
102
}
330
A
100
AcDbSymbolTableRecord
100
AcDbDimStyleTableRecord
  2
SLDDIMSTYLE6
 70
     0
 41
23.114
 44
0.0
 45
0.000000001
 73
     0
 74
     0
 77
     1
 78
    12
 79
     3
140
24.5
144
0.7142857143
147
6.125
172
     1
173
     1
178
     0
271
     2
272
     2
276
     2
284
    12
289
     0
340
E7
  0
DIMSTYLE
105
658
102
{ACAD_REACTORS
330
657
102
}
330
A
100
AcDbSymbolTableRecord
100
AcDbDimStyleTableRecord
  2
SLDDIMSTYLE7
 70
     0
 41
23.114
 44
0.0
 45
0.000000001
 73
     0
 74
     0
 77
     1
 78
    12
 79
     3
140
24.5
144
0.7142857143
147
6.125
172
     1
173
     1
178
     0
271
     2
272
     2
276
     2
284
    12
289
     0
340
8B
344
4F0
  0
DIMSTYLE
105
665
102
{ACAD_REACTORS
330
664
102
}
330
A
100
AcDbSymbolTableRecord
100
AcDbDimStyleTableRecord
  2
SLDDIMSTYLE8
 70
     0
 41
7.112
 44
0.0
 45
0.000000001
 73
     0
 74
     0
 77
     1
 78
    12
 79
     3
140
24.5
144
0.7142857143
147
6.125
172
     1
173
     1
178
     0
271
     2
272
     2
276
     2
284
    12
289
     0
340
8B
341
4F0
343
4F0
  0
DIMSTYLE
105
69D
102
{ACAD_REACTORS
330
69C
102
}
330
A
100
AcDbSymbolTableRecord
100
AcDbDimStyleTableRecord
  2
SLDDIMSTYLE9
 70
     0
 41
23.114
 44
0.0
 45
0.000000001
 73
     0
 74
     0
 77
     1
 78
    12
 79
     3
140
24.5
144
0.7142857143
147
6.125
173
     1
178
     0
271
     2
272
     2
276
     2
284
    12
340
8B
  0
ENDTAB
  0
TABLE
  2
BLOCK_RECORD
  5
1
330
0
100
AcDbSymbolTable
 70
    61
  0
BLOCK_RECORD
  5
1F
330
1
100
AcDbSymbolTableRecord
100
AcDbBlockTableRecord
  2
*Model_Space
340
22
  0
BLOCK_RECORD
  5
1B
330
1
100
AcDbSymbolTableRecord
100
AcDbBlockTableRecord
  2
*Paper_Space
340
1E
  0
BLOCK_RECORD
  5
23
330
1
100
AcDbSymbolTableRecord
100
AcDbBlockTableRecord
  2
*Paper_Space0
340
26
  0
BLOCK_RECORD
  5
7A
330
1
100
AcDbSymbolTableRecord
100
AcDbBlockTableRecord
  2
Block1_3_1
340
0
102
{BLKREFS
331
DA
102
}
  0
BLOCK_RECORD
  5
88
330
1
100
AcDbSymbolTableRecord
100
AcDbBlockTableRecord
  2
SW_NOTE_0
340
0
102
{BLKREFS
331
8E
102
}
  0
BLOCK_RECORD
  5
8F
330
1
100
AcDbSymbolTableRecord
100
AcDbBlockTableRecord
  2
Block2_3_1
340
0
102
{BLKREFS
331
D9
102
}
  0
BLOCK_RECORD
  5
AF
330
1
100
AcDbSymbolTableRecord
100
AcDbBlockTableRecord
  2
SW_NOTE_0_1
340
0
102
{BLKREFS
331
B4
102
}
  0
BLOCK_RECORD
  5
B5
330
1
100
AcDbSymbolTableRecord
100
AcDbBlockTableRecord
  2
SW_NOTE_0_2
340
0
102
{BLKREFS
331
BC
102
}
  0
BLOCK_RECORD
  5
BD
330
1
100
AcDbSymbolTableRecord
100
AcDbBlockTableRecord
  2
rechtlicher_Hinweis_Katalogzeichnungen_1
340
0
102
{BLKREFS
331
D8
102
}
  0
BLOCK_RECORD
  5
C0
330
1
100
AcDbSymbolTableRecord
100
AcDbBlockTableRecord
  2
SW_NOTE_0_3
340
0
102
{BLKREFS
331
C9
102
}
  0
BLOCK_RECORD
  5
DB
330
1
100
AcDbSymbolTableRecord
100
AcDbBlockTableRecord
  2
SW_NOTE_0_4
340
0
102
{BLKREFS
331
E1
102
}
  0
BLOCK_RECORD
  5
F3
330
1
100
AcDbSymbolTableRecord
100
AcDbBlockTableRecord
  2
SW_TABLEANNOTATION_0
340
0
102
{BLKREFS
331
10D
102
}
  0
BLOCK_RECORD
  5
200
330
1
100
AcDbSymbolTableRecord
100
AcDbBlockTableRecord
  2
_D
340
0
  0
BLOCK_RECORD
  5
20B
330
1
100
AcDbSymbolTableRecord
100
AcDbBlockTableRecord
  2
_D_1
340
0
  0
BLOCK_RECORD
  5
217
330
1
100
AcDbSymbolTableRecord
100
AcDbBlockTableRecord
  2
_D_2
340
0
  0
BLOCK_RECORD
  5
221
330
1
100
AcDbSymbolTableRecord
100
AcDbBlockTableRecord
  2
_D_3
340
0
  0
BLOCK_RECORD
  5
22B
330
1
100
AcDbSymbolTableRecord
100
AcDbBlockTableRecord
  2
_D_4
340
0
  0
BLOCK_RECORD
  5
2E2
330
1
100
AcDbSymbolTableRecord
100
AcDbBlockTableRecord
  2
_D_5
340
0
  0
BLOCK_RECORD
  5
2EC
330
1
100
AcDbSymbolTableRecord
100
AcDbBlockTableRecord
  2
_D_6
340
0
  0
BLOCK_RECORD
  5
2F6
330
1
100
AcDbSymbolTableRecord
100
AcDbBlockTableRecord
  2
_D_7
340
0
  0
BLOCK_RECORD
  5
2FF
330
1
100
AcDbSymbolTableRecord
100
AcDbBlockTableRecord
  2
_D_8
340
0
  0
BLOCK_RECORD
  5
30B
330
1
100
AcDbSymbolTableRecord
100
AcDbBlockTableRecord
  2
_D_9
340
0
  0
BLOCK_RECORD
  5
317
330
1
100
AcDbSymbolTableRecord
100
AcDbBlockTableRecord
  2
_D_10
340
0
  0
BLOCK_RECORD
  5
321
330
1
100
AcDbSymbolTableRecord
100
AcDbBlockTableRecord
  2
_D_11
340
0
  0
BLOCK_RECORD
  5
32B
330
1
100
AcDbSymbolTableRecord
100
AcDbBlockTableRecord
  2
_D_12
340
0
  0
BLOCK_RECORD
  5
335
330
1
100
AcDbSymbolTableRecord
100
AcDbBlockTableRecord
  2
_D_13
340
0
  0
BLOCK_RECORD
  5
33F
330
1
100
AcDbSymbolTableRecord
100
AcDbBlockTableRecord
  2
_D_14
340
0
  0
BLOCK_RECORD
  5
34A
330
1
100
AcDbSymbolTableRecord
100
AcDbBlockTableRecord
  2
_D_15
340
0
  0
BLOCK_RECORD
  5
356
330
1
100
AcDbSymbolTableRecord
100
AcDbBlockTableRecord
  2
_D_16
340
0
  0
BLOCK_RECORD
  5
363
330
1
100
AcDbSymbolTableRecord
100
AcDbBlockTableRecord
  2
_D_17
340
0
  0
BLOCK_RECORD
  5
371
330
1
100
AcDbSymbolTableRecord
100
AcDbBlockTableRecord
  2
_D_18
340
0
  0
BLOCK_RECORD
  5
37C
330
1
100
AcDbSymbolTableRecord
100
AcDbBlockTableRecord
  2
_D_19
340
0
  0
BLOCK_RECORD
  5
38B
330
1
100
AcDbSymbolTableRecord
100
AcDbBlockTableRecord
  2
SW_NOTE_0_5
340
0
102
{BLKREFS
331
390
102
}
  0
BLOCK_RECORD
  5
392
330
1
100
AcDbSymbolTableRecord
100
AcDbBlockTableRecord
  2
SW_CENTERMARKSYMBOL_0
340
0
102
{BLKREFS
331
39D
102
}
  0
BLOCK_RECORD
  5
39E
330
1
100
AcDbSymbolTableRecord
100
AcDbBlockTableRecord
  2
SW_CENTERMARKSYMBOL_1
340
0
102
{BLKREFS
331
3A9
102
}
  0
BLOCK_RECORD
  5
3AA
330
1
100
AcDbSymbolTableRecord
100
AcDbBlockTableRecord
  2
SW_CENTERMARKSYMBOL_2
340
0
102
{BLKREFS
331
3B5
102
}
  0
BLOCK_RECORD
  5
3B6
330
1
100
AcDbSymbolTableRecord
100
AcDbBlockTableRecord
  2
SW_CENTERMARKSYMBOL_3
340
0
102
{BLKREFS
331
3C1
102
}
  0
BLOCK_RECORD
  5
3C2
330
1
100
AcDbSymbolTableRecord
100
AcDbBlockTableRecord
  2
SW_CENTERMARKSYMBOL_4
340
0
102
{BLKREFS
331
3CD
102
}
  0
BLOCK_RECORD
  5
3CE
330
1
100
AcDbSymbolTableRecord
100
AcDbBlockTableRecord
  2
SW_CENTERMARKSYMBOL_5
340
0
102
{BLKREFS
331
3D9
102
}
  0
BLOCK_RECORD
  5
3DA
330
1
100
AcDbSymbolTableRecord
100
AcDbBlockTableRecord
  2
SW_CENTERMARKSYMBOL_6
340
0
102
{BLKREFS
331
3E5
102
}
  0
BLOCK_RECORD
  5
3E6
330
1
100
AcDbSymbolTableRecord
100
AcDbBlockTableRecord
  2
SW_CENTERMARKSYMBOL_7
340
0
102
{BLKREFS
331
3F1
102
}
  0
BLOCK_RECORD
  5
3F2
330
1
100
AcDbSymbolTableRecord
100
AcDbBlockTableRecord
  2
SW_CENTERMARKSYMBOL_8
340
0
102
{BLKREFS
331
3FD
102
}
  0
BLOCK_RECORD
  5
3FE
330
1
100
AcDbSymbolTableRecord
100
AcDbBlockTableRecord
  2
SW_CENTERMARKSYMBOL_9
340
0
102
{BLKREFS
331
409
102
}
  0
BLOCK_RECORD
  5
40A
330
1
100
AcDbSymbolTableRecord
100
AcDbBlockTableRecord
  2
SW_CENTERMARKSYMBOL_10
340
0
102
{BLKREFS
331
415
102
}
  0
BLOCK_RECORD
  5
416
330
1
100
AcDbSymbolTableRecord
100
AcDbBlockTableRecord
  2
SW_CENTERMARKSYMBOL_11
340
0
102
{BLKREFS
331
421
102
}
  0
BLOCK_RECORD
  5
4F0
330
1
100
AcDbSymbolTableRecord
100
AcDbBlockTableRecord
  2
_Dot
340
0
102
{BLKREFS
331
4F8
331
503
331
65D
331
669
102
}
  0
BLOCK_RECORD
  5
4F5
330
1
100
AcDbSymbolTableRecord
100
AcDbBlockTableRecord
  2
_D_20
340
0
  0
BLOCK_RECORD
  5
500
330
1
100
AcDbSymbolTableRecord
100
AcDbBlockTableRecord
  2
_D_21
340
0
  0
BLOCK_RECORD
  5
50B
330
1
100
AcDbSymbolTableRecord
100
AcDbBlockTableRecord
  2
_D_22
340
0
  0
BLOCK_RECORD
  5
516
330
1
100
AcDbSymbolTableRecord
100
AcDbBlockTableRecord
  2
_D_23
340
0
  0
BLOCK_RECORD
  5
51F
330
1
100
AcDbSymbolTableRecord
100
AcDbBlockTableRecord
  2
_D_24
340
0
  0
BLOCK_RECORD
  5
529
330
1
100
AcDbSymbolTableRecord
100
AcDbBlockTableRecord
  2
_D_25
340
0
  0
BLOCK_RECORD
  5
616
330
1
100
AcDbSymbolTableRecord
100
AcDbBlockTableRecord
  2
_D_26
340
0
  0
BLOCK_RECORD
  5
624
330
1
100
AcDbSymbolTableRecord
100
AcDbBlockTableRecord
  2
_D_27
340
0
  0
BLOCK_RECORD
  5
632
330
1
100
AcDbSymbolTableRecord
100
AcDbBlockTableRecord
  2
_D_28
340
0
  0
BLOCK_RECORD
  5
63E
330
1
100
AcDbSymbolTableRecord
100
AcDbBlockTableRecord
  2
_D_29
340
0
  0
BLOCK_RECORD
  5
64B
330
1
100
AcDbSymbolTableRecord
100
AcDbBlockTableRecord
  2
_D_30
340
0
  0
BLOCK_RECORD
  5
659
330
1
100
AcDbSymbolTableRecord
100
AcDbBlockTableRecord
  2
_D_31
340
0
  0
BLOCK_RECORD
  5
666
330
1
100
AcDbSymbolTableRecord
100
AcDbBlockTableRecord
  2
_D_32
340
0
  0
BLOCK_RECORD
  5
691
330
1
100
AcDbSymbolTableRecord
100
AcDbBlockTableRecord
  2
_D_33
340
0
  0
BLOCK_RECORD
  5
69E
330
1
100
AcDbSymbolTableRecord
100
AcDbBlockTableRecord
  2
_D_34
340
0
  0
BLOCK_RECORD
  5
6A8
330
1
100
AcDbSymbolTableRecord
100
AcDbBlockTableRecord
  2
SW_CENTERMARKSYMBOL_12
340
0
102
{BLKREFS
331
6B3
102
}
  0
BLOCK_RECORD
  5
6B4
330
1
100
AcDbSymbolTableRecord
100
AcDbBlockTableRecord
  2
SW_CENTERMARKSYMBOL_13
340
0
102
{BLKREFS
331
6BF
102
}
  0
ENDTAB
  0
ENDSEC
  0
SECTION
  2
BLOCKS
  0
BLOCK
  5
20
330
1F
100
AcDbEntity
  8
0
100
AcDbBlockBegin
  2
*Model_Space
 70
     0
 10
0.0
 20
0.0
 30
0.0
  3
*Model_Space
  1

  0
ENDBLK
  5
21
330
1F
100
AcDbEntity
  8
0
100
AcDbBlockEnd
  0
BLOCK
  5
1C
330
1B
100
AcDbEntity
 67
     1
  8
0
100
AcDbBlockBegin
  2
*Paper_Space
 70
     0
 10
0.0
 20
0.0
 30
0.0
  3
*Paper_Space
  1

  0
ENDBLK
  5
1D
330
1B
100
AcDbEntity
 67
     1
  8
0
100
AcDbBlockEnd
  0
BLOCK
  5
24
330
23
100
AcDbEntity
  8
0
100
AcDbBlockBegin
  2
*Paper_Space0
 70
     0
 10
0.0
 20
0.0
 30
0.0
  3
*Paper_Space0
  1

  0
ENDBLK
  5
25
330
23
100
AcDbEntity
  8
0
100
AcDbBlockEnd
  0
BLOCK
  5
7B
330
7A
100
AcDbEntity
  8
0
100
AcDbBlockBegin
  2
Block1_3_1
 70
     0
 10
0.0
 20
0.0
 30
0.0
  3
Block1_3_1
  1

  0
CIRCLE
  5
7D
330
7A
100
AcDbEntity
  8
0
  6
Continuous
 62
     7
370
    18
100
AcDbCircle
 10
81.2962813747
 20
63.6276108944
 30
0.0
 40
8.79136307741128
  0
CIRCLE
  5
7E
330
7A
100
AcDbEntity
  8
0
  6
Continuous
 62
     7
370
    18
100
AcDbCircle
 10
81.2962813747
 20
63.6276108944
 30
0.0
 40
15.51210404558959
  0
LINE
  5
7F
330
7A
100
AcDbEntity
  8
0
  6
CENTERX2
 62
     7
370
    18
100
AcDbLine
 10
81.2962813747
 20
63.6276108944
 30
0.0
 11
55.2841773291
 21
63.6276108944
 31
0.0
  0
LINE
  5
80
330
7A
100
AcDbEntity
  8
0
  6
Continuous
 62
     7
370
    18
100
AcDbLine
 10
57.1602751158
 20
48.1155068489
 30
0.0
 11
57.1602751158
 21
79.150109214
 31
0.0
  0
LINE
  5
81
330
7A
100
AcDbEntity
  8
0
  6
Continuous
 62
     7
370
    18
100
AcDbLine
 10
18.7580035265
 20
72.4189739719
 30
0.0
 11
18.7580035265
 21
54.836247817
 31
0.0
  0
LINE
  5
82
330
7A
100
AcDbEntity
  8
0
  6
Continuous
 62
     7
370
    18
100
AcDbLine
 10
18.7580035265
 20
54.836247817
 30
0.0
 11
57.1602751158
 21
48.1155068489
 31
0.0
  0
LINE
  5
83
330
7A
100
AcDbEntity
  8
0
  6
CENTERX2
 62
     7
370
    18
100
AcDbLine
 10
67.6602751158
 20
63.6276108944
 30
0.0
 11
8.2580035265
 21
63.6276108944
 31
0.0
  0
LINE
  5
84
330
7A
100
AcDbEntity
  8
0
  6
Continuous
 62
     7
370
    18
100
AcDbLine
 10
57.1602751158
 20
79.150109214
 30
0.0
 11
18.7580035265
 21
72.4189739719
 31
0.0
  0
LINE
  5
85
330
7A
100
AcDbEntity
  8
0
  6
CENTERX2
 62
     7
370
    18
100
AcDbLine
 10
81.2962813747
 20
63.6276108944
 30
0.0
 11
81.2962813747
 21
37.6155068489
 31
0.0
  0
LINE
  5
86
330
7A
100
AcDbEntity
  8
0
  6
CENTERX2
 62
     7
370
    18
100
AcDbLine
 10
81.2962813747
 20
63.6276108944
 30
0.0
 11
81.2962813747
 21
89.63971494
 31
0.0
  0
LINE
  5
87
330
7A
100
AcDbEntity
  8
0
  6
CENTERX2
 62
     7
370
    18
100
AcDbLine
 10
81.2962813747
 20
63.6276108944
 30
0.0
 11
107.3083854203
 21
63.6276108944
 31
0.0
  0
INSERT
  5
8E
330
7A
100
AcDbEntity
  8
0
  6
Continuous
 62
     7
370
     0
100
AcDbBlockReference
  2
SW_NOTE_0
 10
14.7222830224
 20
16.6281309378
 30
0.0
  0
ENDBLK
  5
7C
330
7A
100
AcDbEntity
  8
0
100
AcDbBlockEnd
  0
BLOCK
  5
89
330
88
100
AcDbEntity
  8
0
100
AcDbBlockBegin
  2
SW_NOTE_0
 70
     0
 10
0.0
 20
0.0
 30
0.0
  3
SW_NOTE_0
  1

  0
MTEXT
  5
8C
330
88
100
AcDbEntity
  8
0
  6
Continuous
 62
     0
370
     0
100
AcDbMText
 10
46.134375
 20
17.144600939
 30
0.0
 40
13.3
 41
0.0
 71
     2
 72
     1
  1
DIN 6  T1 - 
  7
SLDTEXTSTYLE0
 73
     1
 44
1.0
  0
MTEXT
  5
8D
330
88
100
AcDbEntity
  8
0
  6
Continuous
 62
     0
370
     0
100
AcDbMText
 10
46.5984838367
 20
0.0023782104
 30
0.0
 40
13.3
 41
0.0
 71
     2
 72
     1
  1
Proj.methode 1
  7
SLDTEXTSTYLE0
 73
     1
 44
1.0
  0
ENDBLK
  5
8A
330
88
100
AcDbEntity
  8
0
100
AcDbBlockEnd
  0
BLOCK
  5
90
330
8F
100
AcDbEntity
  8
0
100
AcDbBlockBegin
  2
Block2_3_1
 70
     0
 10
0.0
 20
0.0
 30
0.0
  3
Block2_3_1
  1

  0
ARC
  5
92
330
8F
100
AcDbEntity
  8
FORMAT
100
AcDbCircle
 10
1657.2474557671
 20
399.6934206979
 30
0.0
 40
26.25000000000006
100
AcDbArc
 50
93.8225537293
 51
266.1774462707
  0
ARC
  5
93
330
8F
100
AcDbEntity
  8
FORMAT
100
AcDbCircle
 10
1657.2474557671
 20
399.6934206979
 30
0.0
 40
21.0000000000001
100
AcDbArc
 50
94.7801918472
 51
265.2198081528
  0
ARC
  5
94
330
8F
100
AcDbEntity
  8
FORMAT
100
AcDbCircle
 10
1657.2474557671
 20
399.6934206979
 30
0.0
 40
26.25000000000006
100
AcDbArc
 50
273.8225537293
 51
86.1774462707
  0
ARC
  5
95
330
8F
100
AcDbEntity
  8
FORMAT
100
AcDbCircle
 10
1657.2474557671
 20
399.6934206979
 30
0.0
 40
21.0000000000001
100
AcDbArc
 50
274.7801918472
 51
85.2198081528
  0
ARC
  5
96
330
8F
100
AcDbEntity
  8
FORMAT
100
AcDbCircle
 10
1657.2474557671
 20
407.6242915053
 30
0.0
 40
6.022819479648172
100
AcDbArc
 50
304.8395134495
 51
73.1084194601
  0
ARC
  5
97
330
8F
100
AcDbEntity
  8
FORMAT
100
AcDbCircle
 10
1657.2474557671
 20
407.6242915053
 30
0.0
 40
9.81620102162464
100
AcDbArc
 50
313.8988153445
 51
79.7306010333
  0
ARC
  5
98
330
8F
100
AcDbEntity
  8
FORMAT
100
AcDbCircle
 10
1657.2474557671
 20
388.4857005791
 30
0.0
 40
3.440714680707612
100
AcDbArc
 50
300.5716370086
 51
0.0
  0
ARC
  5
99
330
8F
100
AcDbEntity
  8
FORMAT
100
AcDbCircle
 10
1657.2474557671
 20
407.6242915053
 30
0.0
 40
9.81620102162464
100
AcDbArc
 50
100.2693989667
 51
226.1011846555
  0
ARC
  5
9A
330
8F
100
AcDbEntity
  8
FORMAT
100
AcDbCircle
 10
1657.2474557671
 20
388.4857005791
 30
0.0
 40
6.806425489791309
100
AcDbArc
 50
180.0
 51
255.1013518888
  0
ARC
  5
9B
330
8F
100
AcDbEntity
  8
FORMAT
100
AcDbCircle
 10
1657.2474557671
 20
388.4857005791
 30
0.0
 40
6.806425489791309
100
AcDbArc
 50
284.8986481112
 51
0.0
  0
ARC
  5
9C
330
8F
100
AcDbEntity
  8
FORMAT
100
AcDbCircle
 10
1657.2474557671
 20
388.4857005791
 30
0.0
 40
3.440714680707612
100
AcDbArc
 50
180.0
 51
239.4283629914
  0
ARC
  5
9D
330
8F
100
AcDbEntity
  8
FORMAT
100
AcDbCircle
 10
1657.2474557671
 20
407.6242915053
 30
0.0
 40
6.022819479648172
100
AcDbArc
 50
106.8915805399
 51
235.1604865505
  0
LINE
  5
9E
330
8F
100
AcDbEntity
  8
FORMAT
100
AcDbLine
 10
1627.7186808898
 20
370.1646458206
 30
0.0
 11
1686.7762306444
 21
370.1646458206
 31
0.0
  0
LINE
  5
9F
330
8F
100
AcDbEntity
  8
FORMAT
100
AcDbLine
 10
1627.7186808898
 20
429.2221955752
 30
0.0
 11
1686.7762306444
 21
429.2221955752
 31
0.0
  0
LINE
  5
A0
330
8F
100
AcDbEntity
  8
FORMAT
100
AcDbLine
 10
1627.7186808898
 20
429.2221955752
 30
0.0
 11
1627.7186808898
 21
370.1646458206
 31
0.0
  0
LINE
  5
A1
330
8F
100
AcDbEntity
  8
FORMAT
100
AcDbLine
 10
1686.7762306444
 20
429.2221955752
 30
0.0
 11
1686.7762306444
 21
370.1646458206
 31
0.0
  0
LINE
  5
A2
330
8F
100
AcDbEntity
  8
FORMAT
100
AcDbLine
 10
1655.4974557671
 20
425.8850224053
 30
0.0
 11
1655.4974557671
 21
420.6203769983
 31
0.0
  0
LINE
  5
A3
330
8F
100
AcDbEntity
  8
FORMAT
100
AcDbLine
 10
1658.9974557671
 20
425.8850224053
 30
0.0
 11
1658.9974557671
 21
420.6203769983
 31
0.0
  0
LINE
  5
A4
330
8F
100
AcDbEntity
  8
FORMAT
100
AcDbLine
 10
1655.4974557671
 20
378.7664643974
 30
0.0
 11
1655.4974557671
 21
373.5018189904
 31
0.0
  0
LINE
  5
A5
330
8F
100
AcDbEntity
  8
FORMAT
100
AcDbLine
 10
1658.9974557671
 20
378.7664643974
 30
0.0
 11
1658.9974557671
 21
373.5018189904
 31
0.0
  0
LINE
  5
A6
330
8F
100
AcDbEntity
  8
FORMAT
100
AcDbLine
 10
1658.9974557671
 20
417.2832408527
 30
0.0
 11
1658.9974557671
 21
413.3872642177
 31
0.0
  0
LINE
  5
A7
330
8F
100
AcDbEntity
  8
FORMAT
100
AcDbLine
 10
1655.4974557671
 20
417.2832408527
 30
0.0
 11
1655.4974557671
 21
413.3872642177
 31
0.0
  0
LINE
  5
A8
330
8F
100
AcDbEntity
  8
FORMAT
100
AcDbLine
 10
1650.4410302773
 20
388.4857005791
 30
0.0
 11
1650.4410302773
 21
400.5510762146
 31
0.0
  0
LINE
  5
A9
330
8F
100
AcDbEntity
  8
FORMAT
100
AcDbLine
 10
1664.0538812569
 20
388.4857005791
 30
0.0
 11
1664.0538812569
 21
400.5510762146
 31
0.0
  0
LINE
  5
AA
330
8F
100
AcDbEntity
  8
FORMAT
100
AcDbLine
 10
1660.6881704478
 20
388.4857005791
 30
0.0
 11
1660.6881704478
 21
402.6810297309
 31
0.0
  0
LINE
  5
AB
330
8F
100
AcDbEntity
  8
FORMAT
100
AcDbLine
 10
1653.8067410864
 20
388.4857005791
 30
0.0
 11
1653.8067410864
 21
402.6810297309
 31
0.0
  0
LINE
  5
AC
330
8F
100
AcDbEntity
  8
FORMAT
100
AcDbLine
 10
1655.4974557671
 20
385.5232661892
 30
0.0
 11
1655.4974557671
 21
381.9080925071
 31
0.0
  0
LINE
  5
AD
330
8F
100
AcDbEntity
  8
FORMAT
100
AcDbLine
 10
1658.9974557671
 20
385.5232661892
 30
0.0
 11
1658.9974557671
 21
381.9080925071
 31
0.0
  0
HATCH
  5
AE
330
8F
100
AcDbEntity
  8
FORMAT
100
AcDbHatch
 10
0.0
 20
0.0
 30
0.0
210
0.0
220
0.0
230
1.0
  2
SOLID
 70
     1
 71
     0
 91
        5
 92
        0
 93
        4
 72
     1
 10
1686.776230644441
 20
429.2221955751519
 11
1686.776230644441
 21
370.1646458205502
 72
     1
 10
1686.776230644441
 20
370.1646458205502
 11
1627.718680889839
 21
370.1646458205502
 72
     1
 10
1627.718680889839
 20
370.1646458205502
 11
1627.718680889839
 21
429.2221955751519
 72
     1
 10
1627.718680889839
 20
429.2221955751519
 11
1686.776230644441
 21
429.2221955751519
 97
        0
 92
        0
 93
        4
 72
     2
 10
1657.24745576714
 20
399.693420697851
 40
21.00000000000007
 50
94.78019184719915
 51
265.2198081528017
 73
     0
 72
     1
 10
1655.49745576714
 20
420.6203769982786
 11
1655.49745576714
 21
425.8850224052687
 72
     2
 10
1657.24745576714
 20
399.693420697851
 40
26.25000000000005
 50
93.82255372927435
 51
266.1774462707265
 73
     1
 72
     1
 10
1655.49745576714
 20
373.5018189904334
 11
1655.49745576714
 21
378.7664643974235
 97
        0
 92
        0
 93
        8
 72
     1
 10
1664.053881256931
 20
388.4857005790521
 11
1664.053881256931
 21
400.5510762145541
 72
     2
 10
1657.24745576714
 20
407.6242915052733
 40
9.816201021624591
 50
313.8988153445118
 51
439.730601033339
 73
     1
 72
     1
 10
1658.99745576714
 20
417.2832408527408
 11
1658.99745576714
 21
413.3872642177221
 72
     2
 10
1657.24745576714
 20
407.6242915052733
 40
6.022819479648148
 50
286.8915805399267
 51
415.1604865505418
 73
     0
 72
     1
 10
1660.688170447847
 20
402.6810297308583
 11
1660.688170447847
 21
388.4857005790521
 72
     2
 10
1657.24745576714
 20
388.4857005790521
 40
3.440714680707529
 50
0.0
 51
59.42836299135161
 73
     0
 72
     1
 10
1658.99745576714
 20
385.523266189224
 11
1658.99745576714
 21
381.9080925071099
 72
     2
 10
1657.24745576714
 20
388.4857005790521
 40
6.806425489791268
 50
284.8986481111874
 51
360.0000000000008
 73
     1
 97
        0
 92
        0
 93
        8
 72
     2
 10
1657.24745576714
 20
388.4857005790521
 40
3.440714680707529
 50
120.5716370086479
 51
180.0
 73
     0
 72
     1
 10
1653.806741086432
 20
388.4857005790521
 11
1653.806741086432
 21
402.6810297308583
 72
     2
 10
1657.24745576714
 20
407.6242915052733
 40
6.022819479648148
 50
124.839513449459
 51
253.1084194600749
 73
     0
 72
     1
 10
1655.49745576714
 20
413.3872642177221
 11
1655.49745576714
 21
417.2832408527408
 72
     2
 10
1657.24745576714
 20
407.6242915052733
 40
9.816201021624591
 50
100.2693989666618
 51
226.1011846554899
 73
     1
 72
     1
 10
1650.441030277349
 20
400.5510762145541
 11
1650.441030277349
 21
388.4857005790521
 72
     2
 10
1657.24745576714
 20
388.4857005790521
 40
6.806425489791268
 50
180.0
 51
255.1013518888142
 73
     1
 72
     1
 10
1655.49745576714
 20
381.9080925071099
 11
1655.49745576714
 21
385.5232661892239
 97
        0
 92
        0
 93
        4
 72
     2
 10
1657.24745576714
 20
399.693420697851
 40
21.00000000000007
 50
274.7801918471999
 51
445.2198081528016
 73
     0
 72
     1
 10
1658.99745576714
 20
378.7664643974235
 11
1658.99745576714
 21
373.5018189904334
 72
     2
 10
1657.24745576714
 20
399.693420697851
 40
26.25000000000005
 50
273.8225537292751
 51
446.1774462707265
 73
     1
 72
     1
 10
1658.99745576714
 20
425.8850224052687
 11
1658.99745576714
 21
420.6203769982786
 97
        0
 75
     0
 76
     1
 98
        1
 10
0.0
 20
0.0
  0
INSERT
  5
B4
330
8F
100
AcDbEntity
  8
FORMAT
 62
     7
100
AcDbBlockReference
  2
SW_NOTE_0_1
 10
1625.7602656139
 20
334.0630571774
 30
0.0
  0
INSERT
  5
BC
330
8F
100
AcDbEntity
  8
0
  6
Continuous
 62
     7
370
     0
100
AcDbBlockReference
  2
SW_NOTE_0_2
 10
1708.506124485
 20
399.8232127904
 30
0.0
  0
ENDBLK
  5
91
330
8F
100
AcDbEntity
  8
0
100
AcDbBlockEnd
  0
BLOCK
  5
B0
330
AF
100
AcDbEntity
  8
0
100
AcDbBlockBegin
  2
SW_NOTE_0_1
 70
     0
 10
0.0
 20
0.0
 30
0.0
  3
SW_NOTE_0_1
  1

  0
MTEXT
  5
B3
330
AF
100
AcDbEntity
  8
FORMAT
 62
     0
100
AcDbMText
 10
0.0
 20
27.0563380282
 30
0.0
 40
21.0
 41
0.0
 71
     1
 72
     1
  1
ECO
  7
SLDTEXTSTYLE1
 73
     1
 44
1.0
  0
ENDBLK
  5
B1
330
AF
100
AcDbEntity
  8
0
100
AcDbBlockEnd
  0
BLOCK
  5
B6
330
B5
100
AcDbEntity
  8
0
100
AcDbBlockBegin
  2
SW_NOTE_0_2
 70
     0
 10
0.0
 20
0.0
 30
0.0
  3
SW_NOTE_0_2
  1

  0
MTEXT
  5
B9
330
B5
100
AcDbEntity
  8
0
  6
Continuous
 62
     0
370
     0
100
AcDbMText
 10
0.0
 20
22.558685446
 30
0.0
 40
17.5
 41
0.0
 71
     1
 72
     1
  1
ECO Schulte GmbH & Co. KG
  7
SLDTEXTSTYLE2
 73
     1
 44
1.0
  0
MTEXT
  5
BA
330
B5
100
AcDbEntity
  8
0
  6
Continuous
 62
     0
370
     0
100
AcDbMText
 10
0.0
 20
-1.9413153102
 30
0.0
 40
17.5
 41
0.0
 71
     1
 72
     1
  1
Postfach 206
  7
SLDTEXTSTYLE2
 73
     1
 44
1.0
  0
MTEXT
  5
BB
330
B5
100
AcDbEntity
  8
0
  6
Continuous
 62
     0
370
     0
100
AcDbMText
 10
0.0
 20
-26.4413160665
 30
0.0
 40
17.5
 41
0.0
 71
     1
 72
     1
  1
58682 Menden
  7
SLDTEXTSTYLE2
 73
     1
 44
1.0
  0
ENDBLK
  5
B7
330
B5
100
AcDbEntity
  8
0
100
AcDbBlockEnd
  0
BLOCK
  5
BE
330
BD
100
AcDbEntity
  8
0
100
AcDbBlockBegin
  2
rechtlicher_Hinweis_Katalogzeichnungen_1
 70
     0
 10
0.0
 20
0.0
 30
0.0
  3
rechtlicher_Hinweis_Katalogzeichnungen_1
  1

  0
INSERT
  5
C9
330
BD
100
AcDbEntity
  8
0
  6
Continuous
 62
     7
370
     0
100
AcDbBlockReference
  2
SW_NOTE_0_3
 10
2.1768074632
 20
401.5030406501
 30
0.0
  0
ENDBLK
  5
BF
330
BD
100
AcDbEntity
  8
0
100
AcDbBlockEnd
  0
BLOCK
  5
C1
330
C0
100
AcDbEntity
  8
0
100
AcDbBlockBegin
  2
SW_NOTE_0_3
 70
     0
 10
0.0
 20
0.0
 30
0.0
  3
SW_NOTE_0_3
  1

  0
MTEXT
  5
C3
330
C0
100
AcDbEntity
  8
0
  6
Continuous
 62
     0
370
     0
100
AcDbMText
 10
0.0
 20
45.117370892
 30
0.0
 40
35.0
 41
0.0
 71
     1
 72
     1
  1
Technische Änderungen und Irrtümer vorbehalten. Aus dem Gebrauch der Zeichnung können keinerlei Ansprüche (inkl. 
  7
SLDTEXTSTYLE0
 73
     1
 44
1.0
  0
MTEXT
  5
C4
330
C0
100
AcDbEntity
  8
0
  6
Continuous
 62
     0
370
     0
100
AcDbMText
 10
0.0
 20
-3.8826306204
 30
0.0
 40
35.0
 41
0.0
 71
     1
 72
     1
  1
Schadenersatzansprüche) erhoben und gegen ECO Schulte geltend gemacht werden. Die Zeichnung bleibt unser 
  7
SLDTEXTSTYLE0
 73
     1
 44
1.0
  0
MTEXT
  5
C5
330
C0
100
AcDbEntity
  8
0
  6
Continuous
 62
     0
370
     0
100
AcDbMText
 10
0.0
 20
-52.8826321329
 30
0.0
 40
35.0
 41
0.0
 71
     1
 72
     1
  1
Eigentum. Sämtliche sich aus der Zeichnung ergebenden Ansprüche stehen ausschließlich ECO Schulte zu.
  7
SLDTEXTSTYLE0
 73
     1
 44
1.0
  0
MTEXT
  5
C6
330
C0
100
AcDbEntity
  8
0
  6
Continuous
 62
     0
370
     0
100
AcDbMText
 10
0.0
 20
-150.8826351579
 30
0.0
 40
35.0
 41
0.0
 71
     1
 72
     1
  1
Technical changes and errors excepted. No claims (including compensation claims) may be raised against ECO Schulte by 
  7
SLDTEXTSTYLE0
 73
     1
 44
1.0
  0
MTEXT
  5
C7
330
C0
100
AcDbEntity
  8
0
  6
Continuous
 62
     0
370
     0
100
AcDbMText
 10
0.0
 20
-199.8826366703
 30
0.0
 40
35.0
 41
0.0
 71
     1
 72
     1
  1
using of this drawing. The drawing remains the property of ECO Schulte. All claims resulting from this drawing are solely 
  7
SLDTEXTSTYLE0
 73
     1
 44
1.0
  0
MTEXT
  5
C8
330
C0
100
AcDbEntity
  8
0
  6
Continuous
 62
     0
370
     0
100
AcDbMText
 10
0.0
 20
-248.8826381828
 30
0.0
 40
35.0
 41
0.0
 71
     1
 72
     1
  1
entitled to ECO Schulte.
  7
SLDTEXTSTYLE0
 73
     1
 44
1.0
  0
ENDBLK
  5
C2
330
C0
100
AcDbEntity
  8
0
100
AcDbBlockEnd
  0
BLOCK
  5
DC
330
DB
100
AcDbEntity
  8
0
100
AcDbBlockBegin
  2
SW_NOTE_0_4
 70
     0
 10
0.0
 20
0.0
 30
0.0
  3
SW_NOTE_0_4
  1

  0
MTEXT
  5
DE
330
DB
100
AcDbEntity
  8
FORMAT
 62
     0
100
AcDbMText
 10
0.0
 20
23.8746087637
 30
0.0
 40
18.5208333333
 41
0.0
 71
     1
 72
     1
  1
\LBefestigungsmittel:
  7
SLDTEXTSTYLE0
 73
     1
 44
1.0
  0
MTEXT
  5
DF
330
DB
100
AcDbEntity
  8
FORMAT
 62
     0
100
AcDbMText
 10
0.0
 20
-9.7180977825
 30
0.0
 40
18.5208333333
 41
0.0
 71
     1
 72
     1
  1
1. Montagepatte: Stahl/Alu-Tür: 6x M6 (Einnietmutter M6) ; Holztür: 6x Senkschraube ø6x60
  7
SLDTEXTSTYLE0
 73
     1
 44
1.0
  0
MTEXT
  5
E0
330
DB
100
AcDbEntity
  8
FORMAT
 62
     0
100
AcDbMText
 10
0.0
 20
-41.4125430759
 30
0.0
 40
18.5208333333
 41
0.0
 71
     1
 72
     1
  1
2. Gleitschiene: Stahl/Alu-Tür: 2x M6 (Einnietmutter M6) ; Holztür: 2x Senkschraube ø4x30
  7
SLDTEXTSTYLE0
 73
     1
 44
1.0
  0
ENDBLK
  5
DD
330
DB
100
AcDbEntity
  8
0
100
AcDbBlockEnd
  0
BLOCK
  5
F4
330
F3
100
AcDbEntity
  8
0
100
AcDbBlockBegin
  2
SW_TABLEANNOTATION_0
 70
     0
 10
0.0
 20
0.0
 30
0.0
  3
SW_TABLEANNOTATION_0
  1

  0
LINE
  5
F6
330
F3
100
AcDbEntity
  8
FORMAT
 62
     0
100
AcDbLine
 10
0.0
 20
0.0
 30
0.0
 11
0.0
 21
-38.645834446
 31
0.0
  0
LINE
  5
F7
330
F3
100
AcDbEntity
  8
FORMAT
 62
     0
100
AcDbLine
 10
282.3023691754
 20
0.0
 30
0.0
 11
282.3023691754
 21
-38.645834446
 31
0.0
  0
LINE
  5
F8
330
F3
100
AcDbEntity
  8
FORMAT
 62
     0
100
AcDbLine
 10
0.0
 20
-38.645834446
 30
0.0
 11
0.0
 21
-77.2916688919
 31
0.0
  0
LINE
  5
F9
330
F3
100
AcDbEntity
  8
FORMAT
 62
     0
100
AcDbLine
 10
282.3023691754
 20
-38.645834446
 30
0.0
 11
282.3023691754
 21
-77.2916688919
 31
0.0
  0
LINE
  5
FA
330
F3
100
AcDbEntity
  8
FORMAT
 62
     0
100
AcDbLine
 10
0.0
 20
-77.2916688919
 30
0.0
 11
0.0
 21
-115.9375033379
 31
0.0
  0
LINE
  5
FB
330
F3
100
AcDbEntity
  8
FORMAT
 62
     0
100
AcDbLine
 10
282.3023691754
 20
-77.2916688919
 30
0.0
 11
282.3023691754
 21
-115.9375033379
 31
0.0
  0
LINE
  5
FC
330
F3
100
AcDbEntity
  8
FORMAT
 62
     0
100
AcDbLine
 10
469.2052798878
 20
0.0
 30
0.0
 11
469.2052798878
 21
-38.645834446
 31
0.0
  0
LINE
  5
FD
330
F3
100
AcDbEntity
  8
FORMAT
 62
     0
100
AcDbLine
 10
469.2052798878
 20
-38.645834446
 30
0.0
 11
469.2052798878
 21
-77.2916688919
 31
0.0
  0
LINE
  5
FE
330
F3
100
AcDbEntity
  8
FORMAT
 62
     0
100
AcDbLine
 10
469.2052798878
 20
-77.2916688919
 30
0.0
 11
469.2052798878
 21
-115.9375033379
 31
0.0
  0
LINE
  5
FF
330
F3
100
AcDbEntity
  8
FORMAT
 62
     0
100
AcDbLine
 10
0.0
 20
0.0
 30
0.0
 11
282.3023691754
 21
0.0
 31
0.0
  0
LINE
  5
100
330
F3
100
AcDbEntity
  8
FORMAT
 62
     0
100
AcDbLine
 10
0.0
 20
-38.645834446
 30
0.0
 11
282.3023691754
 21
-38.645834446
 31
0.0
  0
LINE
  5
101
330
F3
100
AcDbEntity
  8
FORMAT
 62
     0
100
AcDbLine
 10
282.3023691754
 20
0.0
 30
0.0
 11
469.2052798878
 21
0.0
 31
0.0
  0
LINE
  5
102
330
F3
100
AcDbEntity
  8
FORMAT
 62
     0
100
AcDbLine
 10
282.3023691754
 20
-38.645834446
 30
0.0
 11
469.2052798878
 21
-38.645834446
 31
0.0
  0
LINE
  5
103
330
F3
100
AcDbEntity
  8
FORMAT
 62
     0
100
AcDbLine
 10
0.0
 20
-77.2916688919
 30
0.0
 11
282.3023691754
 21
-77.2916688919
 31
0.0
  0
LINE
  5
104
330
F3
100
AcDbEntity
  8
FORMAT
 62
     0
100
AcDbLine
 10
282.3023691754
 20
-77.2916688919
 30
0.0
 11
469.2052798878
 21
-77.2916688919
 31
0.0
  0
LINE
  5
105
330
F3
100
AcDbEntity
  8
FORMAT
 62
     0
100
AcDbLine
 10
0.0
 20
-115.9375033379
 30
0.0
 11
282.3023691754
 21
-115.9375033379
 31
0.0
  0
LINE
  5
106
330
F3
100
AcDbEntity
  8
FORMAT
 62
     0
100
AcDbLine
 10
282.3023691754
 20
-115.9375033379
 30
0.0
 11
469.2052798878
 21
-115.9375033379
 31
0.0
  0
MTEXT
  5
107
330
F3
100
AcDbEntity
  8
FORMAT
 62
     0
100
AcDbMText
 10
18.7022298565
 20
-6.7004728098
 30
0.0
 40
24.5
 41
0.0
 71
     1
 72
     1
  1
Sturztiefe (mm)
  7
SLDTEXTSTYLE0
 73
     1
 44
1.0
  0
MTEXT
  5
108
330
F3
100
AcDbEntity
  8
FORMAT
 62
     0
100
AcDbMText
 10
317.8215268325
 20
-6.7004728098
 30
0.0
 40
24.5
 41
0.0
 71
     1
 72
     1
  1
D (mm)
  7
SLDTEXTSTYLE0
 73
     1
 44
1.0
  0
MTEXT
  5
109
330
F3
100
AcDbEntity
  8
FORMAT
 62
     0
100
AcDbMText
 10
64.8949345564
 20
-45.3463072558
 30
0.0
 40
24.5
 41
0.0
 71
     1
 72
     1
  1
-30 ... +10
  7
SLDTEXTSTYLE0
 73
     1
 44
1.0
  0
MTEXT
  5
10A
330
F3
100
AcDbEntity
  8
FORMAT
 62
     0
100
AcDbMText
 10
357.0385472174
 20
-45.3463072558
 30
0.0
 40
24.5
 41
0.0
 71
     1
 72
     1
  1
89
  7
SLDTEXTSTYLE0
 73
     1
 44
1.0
  0
MTEXT
  5
10B
330
F3
100
AcDbEntity
  8
FORMAT
 62
     0
100
AcDbMText
 10
60.658479481
 20
-83.9921417017
 30
0.0
 40
24.5
 41
0.0
 71
     1
 72
     1
  1
+11 ... +50
  7
SLDTEXTSTYLE0
 73
     1
 44
1.0
  0
MTEXT
  5
10C
330
F3
100
AcDbEntity
  8
FORMAT
 62
     0
100
AcDbMText
 10
357.0385472174
 20
-83.9921417017
 30
0.0
 40
24.5
 41
0.0
 71
     1
 72
     1
  1
79
  7
SLDTEXTSTYLE0
 73
     1
 44
1.0
  0
ENDBLK
  5
F5
330
F3
100
AcDbEntity
  8
0
100
AcDbBlockEnd
  0
BLOCK
  5
201
330
200
100
AcDbEntity
  8
0
100
AcDbBlockBegin
  2
_D
 70
     0
 10
0.0
 20
0.0
 30
0.0
  3
_D
  1

  0
SOLID
  5
203
330
200
100
AcDbEntity
  8
FORMAT
100
AcDbTrace
 10
582.6609846214
 20
1464.4085128951
 30
0.0
 11
605.7749846214
 21
1460.8525128951
 31
0.0
 12
605.7749846214
 22
1467.9645128951
 32
0.0
 13
605.7749846214
 23
1467.9645128951
 33
0.0
  0
SOLID
  5
204
330
200
100
AcDbEntity
  8
FORMAT
100
AcDbTrace
 10
1235.6609846214
 20
1464.4085128951
 30
0.0
 11
1212.5469846214
 21
1467.9645128951
 31
0.0
 12
1212.5469846214
 22
1460.8525128951
 32
0.0
 13
1212.5469846214
 23
1460.8525128951
 33
0.0
  0
LINE
  5
205
330
200
100
AcDbEntity
  8
FORMAT
100
AcDbLine
 10
582.6609846214
 20
1575.5073192333
 30
0.0
 11
582.6609846214
 21
1457.4085128951
 31
0.0
  0
LINE
  5
206
330
200
100
AcDbEntity
  8
FORMAT
100
AcDbLine
 10
1235.6609846214
 20
1575.5073192333
 30
0.0
 11
1235.6609846214
 21
1457.4085128951
 31
0.0
  0
LINE
  5
207
330
200
100
AcDbEntity
  8
FORMAT
100
AcDbLine
 10
582.6609846214
 20
1464.4085128951
 30
0.0
 11
1235.6609846214
 21
1464.4085128951
 31
0.0
  0
MTEXT
  5
208
330
200
100
AcDbEntity
  8
FORMAT
100
AcDbMText
 10
881.0880686501
 20
1495.9906741493
 30
0.0
 40
24.5
 41
0.0
 71
     1
 72
     1
  1
653
  7
SLDTEXTSTYLE0
 73
     1
 44
1.0
  0
ENDBLK
  5
202
330
200
100
AcDbEntity
  8
0
100
AcDbBlockEnd
  0
BLOCK
  5
20C
330
20B
100
AcDbEntity
  8
0
100
AcDbBlockBegin
  2
_D_1
 70
     0
 10
0.0
 20
0.0
 30
0.0
  3
_D_1
  1

  0
SOLID
  5
20E
330
20B
100
AcDbEntity
  8
FORMAT
100
AcDbTrace
 10
1274.2829487951
 20
1582.0073192333
 30
0.0
 11
1270.7269487951
 21
1558.8933192333
 31
0.0
 12
1277.8389487951
 22
1558.8933192333
 32
0.0
 13
1277.8389487951
 23
1558.8933192333
 33
0.0
  0
SOLID
  5
20F
330
20B
100
AcDbEntity
  8
FORMAT
100
AcDbTrace
 10
1274.2829487951
 20
1599.0073192333
 30
0.0
 11
1277.8389487951
 21
1622.1213192333
 31
0.0
 12
1270.7269487951
 22
1622.1213192333
 32
0.0
 13
1270.7269487951
 23
1622.1213192333
 33
0.0
  0
LINE
  5
210
330
20B
100
AcDbEntity
  8
FORMAT
100
AcDbLine
 10
1242.1609846214
 20
1582.0073192333
 30
0.0
 11
1281.2829487951
 21
1582.0073192333
 31
0.0
  0
LINE
  5
211
330
20B
100
AcDbEntity
  8
FORMAT
100
AcDbLine
 10
1242.1609846214
 20
1599.0073192333
 30
0.0
 11
1281.2829487951
 21
1599.0073192333
 31
0.0
  0
LINE
  5
212
330
20B
100
AcDbEntity
  8
FORMAT
100
AcDbLine
 10
1274.2829487951
 20
1582.0073192333
 30
0.0
 11
1274.2829487951
 21
1532.3094795155
 31
0.0
  0
LINE
  5
213
330
20B
100
AcDbEntity
  8
FORMAT
100
AcDbLine
 10
1274.2829487951
 20
1582.0073192333
 30
0.0
 11
1274.2829487951
 21
1599.0073192333
 31
0.0
  0
LINE
  5
214
330
20B
100
AcDbEntity
  8
FORMAT
100
AcDbLine
 10
1274.2829487951
 20
1599.0073192333
 30
0.0
 11
1274.2829487951
 21
1643.4573192333
 31
0.0
  0
MTEXT
  5
215
330
20B
100
AcDbEntity
  8
FORMAT
100
AcDbMText
 10
1242.7007875408
 20
1532.3094795155
 30
0.0
 40
24.5
 41
0.0
 71
     1
 72
     1
  1
17
  7
SLDTEXTSTYLE0
 11
-3.269436733918102E-15
 21
1.0
 31
0.0
 73
     1
 44
1.0
  0
ENDBLK
  5
20D
330
20B
100
AcDbEntity
  8
0
100
AcDbBlockEnd
  0
BLOCK
  5
218
330
217
100
AcDbEntity
  8
0
100
AcDbBlockBegin
  2
_D_2
 70
     0
 10
0.0
 20
0.0
 30
0.0
  3
_D_2
  1

  0
SOLID
  5
21A
330
217
100
AcDbEntity
  8
FORMAT
100
AcDbTrace
 10
474.4309639077
 20
1634.0073192271
 30
0.0
 11
477.9869639077
 21
1657.1213192271
 31
0.0
 12
470.8749639077
 22
1657.1213192271
 32
0.0
 13
470.8749639077
 23
1657.1213192271
 33
0.0
  0
SOLID
  5
21B
330
217
100
AcDbEntity
  8
FORMAT
100
AcDbTrace
 10
474.4309639077
 20
1729.0073192271
 30
0.0
 11
470.8749639077
 21
1705.8933192271
 31
0.0
 12
477.9869639077
 22
1705.8933192271
 32
0.0
 13
477.9869639077
 23
1705.8933192271
 33
0.0
  0
LINE
  5
21C
330
217
100
AcDbEntity
  8
FORMAT
100
AcDbLine
 10
506.6609846204
 20
1634.0073192271
 30
0.0
 11
467.4309639077
 21
1634.0073192271
 31
0.0
  0
LINE
  5
21D
330
217
100
AcDbEntity
  8
FORMAT
100
AcDbLine
 10
506.6609846204
 20
1729.0073192271
 30
0.0
 11
467.4309639077
 21
1729.0073192271
 31
0.0
  0
LINE
  5
21E
330
217
100
AcDbEntity
  8
FORMAT
100
AcDbLine
 10
474.4309639077
 20
1634.0073192271
 30
0.0
 11
474.4309639077
 21
1729.0073192271
 31
0.0
  0
MTEXT
  5
21F
330
217
100
AcDbEntity
  8
FORMAT
100
AcDbMText
 10
442.8488026535
 20
1662.7920419129
 30
0.0
 40
24.5
 41
0.0
 71
     1
 72
     1
  1
95
  7
SLDTEXTSTYLE0
 11
6.123233995736766E-17
 21
1.0
 31
0.0
 73
     1
 44
1.0
  0
ENDBLK
  5
219
330
217
100
AcDbEntity
  8
0
100
AcDbBlockEnd
  0
BLOCK
  5
222
330
221
100
AcDbEntity
  8
0
100
AcDbBlockBegin
  2
_D_3
 70
     0
 10
0.0
 20
0.0
 30
0.0
  3
_D_3
  1

  0
SOLID
  5
224
330
221
100
AcDbEntity
  8
FORMAT
100
AcDbTrace
 10
504.1609846204
 20
1768.3785754889
 30
0.0
 11
527.2749846204
 21
1764.8225754889
 31
0.0
 12
527.2749846204
 22
1771.9345754889
 32
0.0
 13
527.2749846204
 23
1771.9345754889
 33
0.0
  0
SOLID
  5
225
330
221
100
AcDbEntity
  8
FORMAT
100
AcDbTrace
 10
1193.1609846204
 20
1768.3785754889
 30
0.0
 11
1170.0469846204
 21
1771.9345754889
 31
0.0
 12
1170.0469846204
 22
1764.8225754889
 32
0.0
 13
1170.0469846204
 23
1764.8225754889
 33
0.0
  0
LINE
  5
226
330
221
100
AcDbEntity
  8
FORMAT
100
AcDbLine
 10
504.1609846204
 20
1731.0073192271
 30
0.0
 11
504.1609846204
 21
1775.3785754889
 31
0.0
  0
LINE
  5
227
330
221
100
AcDbEntity
  8
FORMAT
100
AcDbLine
 10
1193.1609846204
 20
1731.0073192271
 30
0.0
 11
1193.1609846204
 21
1775.3785754889
 31
0.0
  0
LINE
  5
228
330
221
100
AcDbEntity
  8
FORMAT
100
AcDbLine
 10
504.1609846204
 20
1768.3785754889
 30
0.0
 11
1193.1609846204
 21
1768.3785754889
 31
0.0
  0
MTEXT
  5
229
330
221
100
AcDbEntity
  8
FORMAT
100
AcDbMText
 10
820.5880686491
 20
1799.9607367431
 30
0.0
 40
24.5
 41
0.0
 71
     1
 72
     1
  1
689
  7
SLDTEXTSTYLE0
 73
     1
 44
1.0
  0
ENDBLK
  5
223
330
221
100
AcDbEntity
  8
0
100
AcDbBlockEnd
  0
BLOCK
  5
22C
330
22B
100
AcDbEntity
  8
0
100
AcDbBlockBegin
  2
_D_4
 70
     0
 10
0.0
 20
0.0
 30
0.0
  3
_D_4
  1

  0
SOLID
  5
22E
330
22B
100
AcDbEntity
  8
FORMAT
100
AcDbTrace
 10
503.6609846204
 20
1410.4590454845
 30
0.0
 11
526.7749846204
 21
1406.9030454845
 31
0.0
 12
526.7749846204
 22
1414.0150454845
 32
0.0
 13
526.7749846204
 23
1414.0150454845
 33
0.0
  0
SOLID
  5
22F
330
22B
100
AcDbEntity
  8
FORMAT
100
AcDbTrace
 10
783.6609846205
 20
1410.4590454845
 30
0.0
 11
760.5469846205
 21
1414.0150454845
 31
0.0
 12
760.5469846205
 22
1406.9030454845
 32
0.0
 13
760.5469846205
 23
1406.9030454845
 33
0.0
  0
LINE
  5
230
330
22B
100
AcDbEntity
  8
FORMAT
100
AcDbLine
 10
783.6609846205
 20
1590.0073192273
 30
0.0
 11
783.6609846205
 21
1474.9085128951
 31
0.0
  0
LINE
  5
231
330
22B
100
AcDbEntity
  8
FORMAT
100
AcDbLine
 10
783.6609846205
 20
1453.9085128951
 30
0.0
 11
783.6609846205
 21
1403.4590454845
 31
0.0
  0
LINE
  5
232
330
22B
100
AcDbEntity
  8
FORMAT
100
AcDbLine
 10
503.6609846204
 20
1410.4590454845
 30
0.0
 11
783.6609846205
 21
1410.4590454845
 31
0.0
  0
MTEXT
  5
233
330
22B
100
AcDbEntity
  8
FORMAT
100
AcDbMText
 10
615.5880686492
 20
1442.0412067388
 30
0.0
 40
24.5
 41
0.0
 71
     1
 72
     1
  1
280
  7
SLDTEXTSTYLE0
 73
     1
 44
1.0
  0
ENDBLK
  5
22D
330
22B
100
AcDbEntity
  8
0
100
AcDbBlockEnd
  0
BLOCK
  5
2E3
330
2E2
100
AcDbEntity
  8
0
100
AcDbBlockBegin
  2
_D_5
 70
     0
 10
0.0
 20
0.0
 30
0.0
  3
_D_5
  1

  0
SOLID
  5
2E5
330
2E2
100
AcDbEntity
  8
FORMAT
100
AcDbTrace
 10
592.6609846204
 20
605.0961098519
 30
0.0
 11
615.7749846204
 21
601.5401098519
 31
0.0
 12
615.7749846204
 22
608.6521098519
 32
0.0
 13
615.7749846204
 23
608.6521098519
 33
0.0
  0
SOLID
  5
2E6
330
2E2
100
AcDbEntity
  8
FORMAT
100
AcDbTrace
 10
1225.6609846204
 20
605.0961098519
 30
0.0
 11
1202.5469846204
 21
608.6521098519
 31
0.0
 12
1202.5469846204
 22
601.5401098519
 32
0.0
 13
1202.5469846204
 23
601.5401098519
 33
0.0
  0
LINE
  5
2E7
330
2E2
100
AcDbEntity
  8
FORMAT
100
AcDbLine
 10
592.6609846204
 20
731.5060094136
 30
0.0
 11
592.6609846204
 21
598.0961098519
 31
0.0
  0
LINE
  5
2E8
330
2E2
100
AcDbEntity
  8
FORMAT
100
AcDbLine
 10
1225.6609846204
 20
731.5060094136
 30
0.0
 11
1225.6609846204
 21
598.0961098519
 31
0.0
  0
LINE
  5
2E9
330
2E2
100
AcDbEntity
  8
FORMAT
100
AcDbLine
 10
592.6609846204
 20
605.0961098519
 30
0.0
 11
1225.6609846204
 21
605.0961098519
 31
0.0
  0
MTEXT
  5
2EA
330
2E2
100
AcDbEntity
  8
FORMAT
100
AcDbMText
 10
881.0880686491
 20
636.6782711061
 30
0.0
 40
24.5
 41
0.0
 71
     1
 72
     1
  1
633
  7
SLDTEXTSTYLE0
 73
     1
 44
1.0
  0
ENDBLK
  5
2E4
330
2E2
100
AcDbEntity
  8
0
100
AcDbBlockEnd
  0
BLOCK
  5
2ED
330
2EC
100
AcDbEntity
  8
0
100
AcDbBlockBegin
  2
_D_6
 70
     0
 10
0.0
 20
0.0
 30
0.0
  3
_D_6
  1

  0
SOLID
  5
2EF
330
2EC
100
AcDbEntity
  8
FORMAT
100
AcDbTrace
 10
1226.1227416358
 20
789.2560094132
 30
0.0
 11
1229.6787416358
 21
812.3700094132
 31
0.0
 12
1222.5667416358
 22
812.3700094132
 32
0.0
 13
1222.5667416358
 23
812.3700094132
 33
0.0
  0
SOLID
  5
2F0
330
2EC
100
AcDbEntity
  8
FORMAT
100
AcDbTrace
 10
1226.1227416358
 20
880.2560094132
 30
0.0
 11
1222.5667416358
 21
857.1420094132
 31
0.0
 12
1229.6787416358
 22
857.1420094132
 32
0.0
 13
1229.6787416358
 23
857.1420094132
 33
0.0
  0
LINE
  5
2F1
330
2EC
100
AcDbEntity
  8
FORMAT
100
AcDbLine
 10
1190.6609846204
 20
789.2560094132
 30
0.0
 11
1233.1227416358
 21
789.2560094132
 31
0.0
  0
LINE
  5
2F2
330
2EC
100
AcDbEntity
  8
FORMAT
100
AcDbLine
 10
1190.6609846204
 20
880.2560094132
 30
0.0
 11
1233.1227416358
 21
880.2560094132
 31
0.0
  0
LINE
  5
2F3
330
2EC
100
AcDbEntity
  8
FORMAT
100
AcDbLine
 10
1226.1227416358
 20
789.2560094132
 30
0.0
 11
1226.1227416358
 21
880.2560094132
 31
0.0
  0
MTEXT
  5
2F4
330
2EC
100
AcDbEntity
  8
FORMAT
100
AcDbMText
 10
1194.5405803816
 20
816.040732099
 30
0.0
 40
24.5
 41
0.0
 71
     1
 72
     1
  1
91
  7
SLDTEXTSTYLE0
 11
-6.049014748177263E-16
 21
1.0
 31
0.0
 73
     1
 44
1.0
  0
ENDBLK
  5
2EE
330
2EC
100
AcDbEntity
  8
0
100
AcDbBlockEnd
  0
BLOCK
  5
2F7
330
2F6
100
AcDbEntity
  8
0
100
AcDbBlockBegin
  2
_D_7
 70
     0
 10
0.0
 20
0.0
 30
0.0
  3
_D_7
  1

  0
SOLID
  5
2F9
330
2F6
100
AcDbEntity
  8
FORMAT
100
AcDbTrace
 10
503.6609846204
 20
605.0961098519
 30
0.0
 11
526.7749846204
 21
601.5401098519
 31
0.0
 12
526.7749846204
 22
608.6521098519
 32
0.0
 13
526.7749846204
 23
608.6521098519
 33
0.0
  0
SOLID
  5
2FA
330
2F6
100
AcDbEntity
  8
FORMAT
100
AcDbTrace
 10
592.6609846204
 20
605.0961098519
 30
0.0
 11
569.5469846204
 21
608.6521098519
 31
0.0
 12
569.5469846204
 22
601.5401098519
 32
0.0
 13
569.5469846204
 23
601.5401098519
 33
0.0
  0
LINE
  5
2FB
330
2F6
100
AcDbEntity
  8
FORMAT
100
AcDbLine
 10
592.6609846204
 20
731.5060094136
 30
0.0
 11
592.6609846204
 21
598.0961098519
 31
0.0
  0
LINE
  5
2FC
330
2F6
100
AcDbEntity
  8
FORMAT
100
AcDbLine
 10
503.6609846204
 20
605.0961098519
 30
0.0
 11
592.6609846204
 21
605.0961098519
 31
0.0
  0
MTEXT
  5
2FD
330
2F6
100
AcDbEntity
  8
FORMAT
100
AcDbMText
 10
536.0130676739
 20
636.6782711061
 30
0.0
 40
24.5
 41
0.0
 71
     1
 72
     1
  1
D
  7
SLDTEXTSTYLE0
 73
     1
 44
1.0
  0
ENDBLK
  5
2F8
330
2F6
100
AcDbEntity
  8
0
100
AcDbBlockEnd
  0
BLOCK
  5
300
330
2FF
100
AcDbEntity
  8
0
100
AcDbBlockBegin
  2
_D_8
 70
     0
 10
0.0
 20
0.0
 30
0.0
  3
_D_8
  1

  0
SOLID
  5
302
330
2FF
100
AcDbEntity
  8
FORMAT
100
AcDbTrace
 10
503.6609846204
 20
983.7623354139
 30
0.0
 11
480.5469846204
 21
987.3183354139
 31
0.0
 12
480.5469846204
 22
980.2063354139
 32
0.0
 13
480.5469846204
 23
980.2063354139
 33
0.0
  0
SOLID
  5
303
330
2FF
100
AcDbEntity
  8
FORMAT
100
AcDbTrace
 10
513.6609846204
 20
983.7623354139
 30
0.0
 11
536.7749846204
 21
980.2063354139
 31
0.0
 12
536.7749846204
 22
987.3183354139
 32
0.0
 13
536.7749846204
 23
987.3183354139
 33
0.0
  0
LINE
  5
304
330
2FF
100
AcDbEntity
  8
FORMAT
100
AcDbLine
 10
503.6609846204
 20
637.7560094136
 30
0.0
 11
503.6609846204
 21
990.7623354139
 31
0.0
  0
LINE
  5
305
330
2FF
100
AcDbEntity
  8
FORMAT
100
AcDbLine
 10
513.6609846204
 20
814.2560094132
 30
0.0
 11
513.6609846204
 21
990.7623354139
 31
0.0
  0
LINE
  5
306
330
2FF
100
AcDbEntity
  8
FORMAT
100
AcDbLine
 10
503.6609846204
 20
983.7623354139
 30
0.0
 11
441.4996622889
 21
983.7623354139
 31
0.0
  0
LINE
  5
307
330
2FF
100
AcDbEntity
  8
FORMAT
100
AcDbLine
 10
503.6609846204
 20
983.7623354139
 30
0.0
 11
513.6609846204
 21
983.7623354139
 31
0.0
  0
LINE
  5
308
330
2FF
100
AcDbEntity
  8
FORMAT
100
AcDbLine
 10
513.6609846204
 20
983.7623354139
 30
0.0
 11
558.1109846204
 21
983.7623354139
 31
0.0
  0
MTEXT
  5
309
330
2FF
100
AcDbEntity
  8
FORMAT
100
AcDbMText
 10
441.4996622889
 20
1015.3444966681
 30
0.0
 40
24.5
 41
0.0
 71
     1
 72
     1
  1
10
  7
SLDTEXTSTYLE0
 73
     1
 44
1.0
  0
ENDBLK
  5
301
330
2FF
100
AcDbEntity
  8
0
100
AcDbBlockEnd
  0
BLOCK
  5
30C
330
30B
100
AcDbEntity
  8
0
100
AcDbBlockBegin
  2
_D_9
 70
     0
 10
0.0
 20
0.0
 30
0.0
  3
_D_9
  1

  0
SOLID
  5
30E
330
30B
100
AcDbEntity
  8
FORMAT
100
AcDbTrace
 10
503.6609846204
 20
1035.7560094136
 30
0.0
 11
480.5469846204
 21
1039.3120094136
 31
0.0
 12
480.5469846204
 22
1032.2000094136
 32
0.0
 13
480.5469846204
 23
1032.2000094136
 33
0.0
  0
SOLID
  5
30F
330
30B
100
AcDbEntity
  8
FORMAT
100
AcDbTrace
 10
527.6609846204
 20
1035.7560094136
 30
0.0
 11
550.7749846204
 21
1032.2000094136
 31
0.0
 12
550.7749846204
 22
1039.3120094136
 32
0.0
 13
550.7749846204
 23
1039.3120094136
 33
0.0
  0
LINE
  5
310
330
30B
100
AcDbEntity
  8
FORMAT
100
AcDbLine
 10
503.6609846204
 20
637.7560094136
 30
0.0
 11
503.6609846204
 21
1042.7560094136
 31
0.0
  0
LINE
  5
311
330
30B
100
AcDbEntity
  8
FORMAT
100
AcDbLine
 10
527.6609846204
 20
867.2560094136
 30
0.0
 11
527.6609846204
 21
1042.7560094136
 31
0.0
  0
LINE
  5
312
330
30B
100
AcDbEntity
  8
FORMAT
100
AcDbLine
 10
503.6609846204
 20
1035.7560094136
 30
0.0
 11
441.4996622889
 21
1035.7560094136
 31
0.0
  0
LINE
  5
313
330
30B
100
AcDbEntity
  8
FORMAT
100
AcDbLine
 10
503.6609846204
 20
1035.7560094136
 30
0.0
 11
527.6609846204
 21
1035.7560094136
 31
0.0
  0
LINE
  5
314
330
30B
100
AcDbEntity
  8
FORMAT
100
AcDbLine
 10
527.6609846204
 20
1035.7560094136
 30
0.0
 11
572.1109846204
 21
1035.7560094136
 31
0.0
  0
MTEXT
  5
315
330
30B
100
AcDbEntity
  8
FORMAT
100
AcDbMText
 10
441.4996622889
 20
1067.3381706678
 30
0.0
 40
24.5
 41
0.0
 71
     1
 72
     1
  1
24
  7
SLDTEXTSTYLE0
 73
     1
 44
1.0
  0
ENDBLK
  5
30D
330
30B
100
AcDbEntity
  8
0
100
AcDbBlockEnd
  0
BLOCK
  5
318
330
317
100
AcDbEntity
  8
0
100
AcDbBlockBegin
  2
_D_10
 70
     0
 10
0.0
 20
0.0
 30
0.0
  3
_D_10
  1

  0
SOLID
  5
31A
330
317
100
AcDbEntity
  8
FORMAT
100
AcDbTrace
 10
503.6609846204
 20
1077.7560094136
 30
0.0
 11
526.7749846204
 21
1074.2000094136
 31
0.0
 12
526.7749846204
 22
1081.3120094136
 32
0.0
 13
526.7749846204
 23
1081.3120094136
 33
0.0
  0
SOLID
  5
31B
330
317
100
AcDbEntity
  8
FORMAT
100
AcDbTrace
 10
720.6609846204
 20
1077.7560094136
 30
0.0
 11
697.5469846204
 21
1081.3120094136
 31
0.0
 12
697.5469846204
 22
1074.2000094136
 32
0.0
 13
697.5469846204
 23
1074.2000094136
 33
0.0
  0
LINE
  5
31C
330
317
100
AcDbEntity
  8
FORMAT
100
AcDbLine
 10
503.6609846204
 20
637.7560094136
 30
0.0
 11
503.6609846204
 21
1084.7560094136
 31
0.0
  0
LINE
  5
31D
330
317
100
AcDbEntity
  8
FORMAT
100
AcDbLine
 10
720.6609846204
 20
879.7560094132
 30
0.0
 11
720.6609846204
 21
1084.7560094136
 31
0.0
  0
LINE
  5
31E
330
317
100
AcDbEntity
  8
FORMAT
100
AcDbLine
 10
503.6609846204
 20
1077.7560094136
 30
0.0
 11
720.6609846204
 21
1077.7560094136
 31
0.0
  0
MTEXT
  5
31F
330
317
100
AcDbEntity
  8
FORMAT
100
AcDbMText
 10
584.0880686491
 20
1109.3381706678
 30
0.0
 40
24.5
 41
0.0
 71
     1
 72
     1
  1
217
  7
SLDTEXTSTYLE0
 73
     1
 44
1.0
  0
ENDBLK
  5
319
330
317
100
AcDbEntity
  8
0
100
AcDbBlockEnd
  0
BLOCK
  5
322
330
321
100
AcDbEntity
  8
0
100
AcDbBlockBegin
  2
_D_11
 70
     0
 10
0.0
 20
0.0
 30
0.0
  3
_D_11
  1

  0
SOLID
  5
324
330
321
100
AcDbEntity
  8
FORMAT
100
AcDbTrace
 10
720.6609846204
 20
1077.7560094136
 30
0.0
 11
743.7749846204
 21
1074.2000094136
 31
0.0
 12
743.7749846204
 22
1081.3120094136
 32
0.0
 13
743.7749846204
 23
1081.3120094136
 33
0.0
  0
SOLID
  5
325
330
321
100
AcDbEntity
  8
FORMAT
100
AcDbTrace
 10
927.6609846204
 20
1077.7560094136
 30
0.0
 11
904.5469846204
 21
1081.3120094136
 31
0.0
 12
904.5469846204
 22
1074.2000094136
 32
0.0
 13
904.5469846204
 23
1074.2000094136
 33
0.0
  0
LINE
  5
326
330
321
100
AcDbEntity
  8
FORMAT
100
AcDbLine
 10
720.6609846204
 20
879.7560094132
 30
0.0
 11
720.6609846204
 21
1084.7560094136
 31
0.0
  0
LINE
  5
327
330
321
100
AcDbEntity
  8
FORMAT
100
AcDbLine
 10
927.6609846204
 20
879.7560094132
 30
0.0
 11
927.6609846204
 21
1084.7560094136
 31
0.0
  0
LINE
  5
328
330
321
100
AcDbEntity
  8
FORMAT
100
AcDbLine
 10
720.6609846204
 20
1077.7560094136
 30
0.0
 11
927.6609846204
 21
1077.7560094136
 31
0.0
  0
MTEXT
  5
329
330
321
100
AcDbEntity
  8
FORMAT
100
AcDbMText
 10
796.0880686491
 20
1109.3381706678
 30
0.0
 40
24.5
 41
0.0
 71
     1
 72
     1
  1
207
  7
SLDTEXTSTYLE0
 73
     1
 44
1.0
  0
ENDBLK
  5
323
330
321
100
AcDbEntity
  8
0
100
AcDbBlockEnd
  0
BLOCK
  5
32C
330
32B
100
AcDbEntity
  8
0
100
AcDbBlockBegin
  2
_D_12
 70
     0
 10
0.0
 20
0.0
 30
0.0
  3
_D_12
  1

  0
SOLID
  5
32E
330
32B
100
AcDbEntity
  8
FORMAT
100
AcDbTrace
 10
927.6609846204
 20
1077.7560094137
 30
0.0
 11
950.7749846204
 21
1074.2000094137
 31
0.0
 12
950.7749846204
 22
1081.3120094137
 32
0.0
 13
950.7749846204
 23
1081.3120094137
 33
0.0
  0
SOLID
  5
32F
330
32B
100
AcDbEntity
  8
FORMAT
100
AcDbTrace
 10
1153.6609846204
 20
1077.7560094136
 30
0.0
 11
1130.5469846204
 21
1081.3120094136
 31
0.0
 12
1130.5469846204
 22
1074.2000094136
 32
0.0
 13
1130.5469846204
 23
1074.2000094136
 33
0.0
  0
LINE
  5
330
330
32B
100
AcDbEntity
  8
FORMAT
100
AcDbLine
 10
927.6609846204
 20
879.7560094132
 30
0.0
 11
927.6609846204
 21
1084.7560094137
 31
0.0
  0
LINE
  5
331
330
32B
100
AcDbEntity
  8
FORMAT
100
AcDbLine
 10
1153.6609846204
 20
879.7560094132
 30
0.0
 11
1153.6609846204
 21
1084.7560094136
 31
0.0
  0
LINE
  5
332
330
32B
100
AcDbEntity
  8
FORMAT
100
AcDbLine
 10
927.6609846204
 20
1077.7560094137
 30
0.0
 11
1153.6609846204
 21
1077.7560094136
 31
0.0
  0
MTEXT
  5
333
330
32B
100
AcDbEntity
  8
FORMAT
100
AcDbMText
 10
1012.5880686491
 20
1109.3381706679
 30
0.0
 40
24.5
 41
0.0
 71
     1
 72
     1
  1
226
  7
SLDTEXTSTYLE0
 73
     1
 44
1.0
  0
ENDBLK
  5
32D
330
32B
100
AcDbEntity
  8
0
100
AcDbBlockEnd
  0
BLOCK
  5
336
330
335
100
AcDbEntity
  8
0
100
AcDbBlockBegin
  2
_D_13
 70
     0
 10
0.0
 20
0.0
 30
0.0
  3
_D_13
  1

  0
SOLID
  5
338
330
335
100
AcDbEntity
  8
FORMAT
100
AcDbTrace
 10
503.6609846204
 20
1119.7560094136
 30
0.0
 11
526.7749846204
 21
1116.2000094136
 31
0.0
 12
526.7749846204
 22
1123.3120094136
 32
0.0
 13
526.7749846204
 23
1123.3120094136
 33
0.0
  0
SOLID
  5
339
330
335
100
AcDbEntity
  8
FORMAT
100
AcDbTrace
 10
1169.6609846204
 20
1119.7560094136
 30
0.0
 11
1146.5469846204
 21
1123.3120094136
 31
0.0
 12
1146.5469846204
 22
1116.2000094136
 32
0.0
 13
1146.5469846204
 23
1116.2000094136
 33
0.0
  0
LINE
  5
33A
330
335
100
AcDbEntity
  8
FORMAT
100
AcDbLine
 10
503.6609846204
 20
637.7560094136
 30
0.0
 11
503.6609846204
 21
1126.7560094136
 31
0.0
  0
LINE
  5
33B
330
335
100
AcDbEntity
  8
FORMAT
100
AcDbLine
 10
1169.6609846204
 20
867.2560094136
 30
0.0
 11
1169.6609846204
 21
1126.7560094136
 31
0.0
  0
LINE
  5
33C
330
335
100
AcDbEntity
  8
FORMAT
100
AcDbLine
 10
503.6609846204
 20
1119.7560094136
 30
0.0
 11
1169.6609846204
 21
1119.7560094136
 31
0.0
  0
MTEXT
  5
33D
330
335
100
AcDbEntity
  8
FORMAT
100
AcDbMText
 10
808.5880686491
 20
1151.3381706678
 30
0.0
 40
24.5
 41
0.0
 71
     1
 72
     1
  1
666
  7
SLDTEXTSTYLE0
 73
     1
 44
1.0
  0
ENDBLK
  5
337
330
335
100
AcDbEntity
  8
0
100
AcDbBlockEnd
  0
BLOCK
  5
340
330
33F
100
AcDbEntity
  8
0
100
AcDbBlockBegin
  2
_D_14
 70
     0
 10
0.0
 20
0.0
 30
0.0
  3
_D_14
  1

  0
SOLID
  5
342
330
33F
100
AcDbEntity
  8
FORMAT
100
AcDbTrace
 10
503.6609846204
 20
1161.7560094136
 30
0.0
 11
526.7749846204
 21
1158.2000094136
 31
0.0
 12
526.7749846204
 22
1165.3120094136
 32
0.0
 13
526.7749846204
 23
1165.3120094136
 33
0.0
  0
SOLID
  5
343
330
33F
100
AcDbEntity
  8
FORMAT
100
AcDbTrace
 10
1183.6609846204
 20
1161.7560094136
 30
0.0
 11
1160.5469846204
 21
1165.3120094136
 31
0.0
 12
1160.5469846204
 22
1158.2000094136
 32
0.0
 13
1160.5469846204
 23
1158.2000094136
 33
0.0
  0
LINE
  5
344
330
33F
100
AcDbEntity
  8
FORMAT
100
AcDbLine
 10
503.6609846204
 20
637.7560094136
 30
0.0
 11
503.6609846204
 21
1168.7560094136
 31
0.0
  0
LINE
  5
345
330
33F
100
AcDbEntity
  8
FORMAT
100
AcDbLine
 10
1183.6609846204
 20
879.7560094132
 30
0.0
 11
1183.6609846204
 21
1168.7560094136
 31
0.0
  0
LINE
  5
346
330
33F
100
AcDbEntity
  8
FORMAT
100
AcDbLine
 10
503.6609846204
 20
1161.7560094136
 30
0.0
 11
1183.6609846204
 21
1161.7560094136
 31
0.0
  0
MTEXT
  5
347
330
33F
100
AcDbEntity
  8
FORMAT
100
AcDbMText
 10
815.5880686491
 20
1193.3381706678
 30
0.0
 40
24.5
 41
0.0
 71
     1
 72
     1
  1
680
  7
SLDTEXTSTYLE0
 73
     1
 44
1.0
  0
ENDBLK
  5
341
330
33F
100
AcDbEntity
  8
0
100
AcDbBlockEnd
  0
BLOCK
  5
34B
330
34A
100
AcDbEntity
  8
0
100
AcDbBlockBegin
  2
_D_15
 70
     0
 10
0.0
 20
0.0
 30
0.0
  3
_D_15
  1

  0
SOLID
  5
34D
330
34A
100
AcDbEntity
  8
FORMAT
100
AcDbTrace
 10
383.8091611089
 20
765.7560094136
 30
0.0
 11
380.2531611089
 21
742.6420094136
 31
0.0
 12
387.3651611089
 22
742.6420094136
 32
0.0
 13
387.3651611089
 23
742.6420094136
 33
0.0
  0
SOLID
  5
34E
330
34A
100
AcDbEntity
  8
FORMAT
100
AcDbTrace
 10
383.8091611089
 20
789.2560094132
 30
0.0
 11
387.3651611089
 21
812.3700094132
 31
0.0
 12
380.2531611089
 22
812.3700094132
 32
0.0
 13
380.2531611089
 23
812.3700094132
 33
0.0
  0
LINE
  5
34F
330
34A
100
AcDbEntity
  8
FORMAT
100
AcDbLine
 10
516.6609846204
 20
765.7560094136
 30
0.0
 11
376.8091611089
 21
765.7560094136
 31
0.0
  0
LINE
  5
350
330
34A
100
AcDbEntity
  8
FORMAT
100
AcDbLine
 10
506.6609846204
 20
789.2560094132
 30
0.0
 11
376.8091611089
 21
789.2560094132
 31
0.0
  0
LINE
  5
351
330
34A
100
AcDbEntity
  8
FORMAT
100
AcDbLine
 10
383.8091611089
 20
765.7560094136
 30
0.0
 11
383.8091611089
 21
680.0673932909
 31
0.0
  0
LINE
  5
352
330
34A
100
AcDbEntity
  8
FORMAT
100
AcDbLine
 10
383.8091611089
 20
765.7560094136
 30
0.0
 11
383.8091611089
 21
789.2560094132
 31
0.0
  0
LINE
  5
353
330
34A
100
AcDbEntity
  8
FORMAT
100
AcDbLine
 10
383.8091611089
 20
789.2560094132
 30
0.0
 11
383.8091611089
 21
833.7060094132
 31
0.0
  0
MTEXT
  5
354
330
34A
100
AcDbEntity
  8
FORMAT
100
AcDbMText
 10
352.2269998546
 20
680.0673932909
 30
0.0
 40
24.5
 41
0.0
 71
     1
 72
     1
  1
24
  7
SLDTEXTSTYLE0
 11
6.123233995736766E-17
 21
1.0
 31
0.0
 73
     1
 44
1.0
  0
ENDBLK
  5
34C
330
34A
100
AcDbEntity
  8
0
100
AcDbBlockEnd
  0
BLOCK
  5
357
330
356
100
AcDbEntity
  8
0
100
AcDbBlockBegin
  2
_D_16
 70
     0
 10
0.0
 20
0.0
 30
0.0
  3
_D_16
  1

  0
SOLID
  5
359
330
356
100
AcDbEntity
  8
FORMAT
100
AcDbTrace
 10
340.4422346831
 20
789.2560094132
 30
0.0
 11
336.8862346831
 21
766.1420094132
 31
0.0
 12
343.9982346831
 22
766.1420094132
 32
0.0
 13
343.9982346831
 23
766.1420094132
 33
0.0
  0
SOLID
  5
35A
330
356
100
AcDbEntity
  8
FORMAT
100
AcDbTrace
 10
340.4422346831
 20
823.7560094136
 30
0.0
 11
343.9982346831
 21
846.8700094136
 31
0.0
 12
336.8862346831
 22
846.8700094136
 32
0.0
 13
336.8862346831
 23
846.8700094136
 33
0.0
  0
LINE
  5
35B
330
356
100
AcDbEntity
  8
FORMAT
100
AcDbLine
 10
493.1609846204
 20
789.2560094132
 30
0.0
 11
333.4422346831
 21
789.2560094132
 31
0.0
  0
LINE
  5
35C
330
356
100
AcDbEntity
  8
FORMAT
100
AcDbLine
 10
493.1609846204
 20
823.7560094136
 30
0.0
 11
394.3091611089
 21
823.7560094136
 31
0.0
  0
LINE
  5
35D
330
356
100
AcDbEntity
  8
FORMAT
100
AcDbLine
 10
373.3091611089
 20
823.7560094136
 30
0.0
 11
333.4422346831
 21
823.7560094136
 31
0.0
  0
LINE
  5
35E
330
356
100
AcDbEntity
  8
FORMAT
100
AcDbLine
 10
340.4422346831
 20
789.2560094132
 30
0.0
 11
340.4422346831
 21
680.0673932908
 31
0.0
  0
LINE
  5
35F
330
356
100
AcDbEntity
  8
FORMAT
100
AcDbLine
 10
340.4422346831
 20
789.2560094132
 30
0.0
 11
340.4422346831
 21
823.7560094136
 31
0.0
  0
LINE
  5
360
330
356
100
AcDbEntity
  8
FORMAT
100
AcDbLine
 10
340.4422346831
 20
823.7560094136
 30
0.0
 11
340.4422346831
 21
868.2060094136
 31
0.0
  0
MTEXT
  5
361
330
356
100
AcDbEntity
  8
FORMAT
100
AcDbMText
 10
308.8600734289
 20
680.0673932908
 30
0.0
 40
24.5
 41
0.0
 71
     1
 72
     1
  1
35
  7
SLDTEXTSTYLE0
 11
6.123233995736766E-17
 21
1.0
 31
0.0
 73
     1
 44
1.0
  0
ENDBLK
  5
358
330
356
100
AcDbEntity
  8
0
100
AcDbBlockEnd
  0
BLOCK
  5
364
330
363
100
AcDbEntity
  8
0
100
AcDbBlockBegin
  2
_D_17
 70
     0
 10
0.0
 20
0.0
 30
0.0
  3
_D_17
  1

  0
SOLID
  5
366
330
363
100
AcDbEntity
  8
FORMAT
100
AcDbTrace
 10
295.2220208033
 20
823.7560094136
 30
0.0
 11
291.6660208033
 21
800.6420094136
 31
0.0
 12
298.7780208033
 22
800.6420094136
 32
0.0
 13
298.7780208033
 23
800.6420094136
 33
0.0
  0
SOLID
  5
367
330
363
100
AcDbEntity
  8
FORMAT
100
AcDbTrace
 10
295.2220208033
 20
847.7560094136
 30
0.0
 11
298.7780208033
 21
870.8700094136
 31
0.0
 12
291.6660208033
 22
870.8700094136
 32
0.0
 13
291.6660208033
 23
870.8700094136
 33
0.0
  0
LINE
  5
368
330
363
100
AcDbEntity
  8
FORMAT
100
AcDbLine
 10
493.1609846204
 20
823.7560094136
 30
0.0
 11
394.3091611089
 21
823.7560094136
 31
0.0
  0
LINE
  5
369
330
363
100
AcDbEntity
  8
FORMAT
100
AcDbLine
 10
373.3091611089
 20
823.7560094136
 30
0.0
 11
288.2220208033
 21
823.7560094136
 31
0.0
  0
LINE
  5
36A
330
363
100
AcDbEntity
  8
FORMAT
100
AcDbLine
 10
493.1609846204
 20
847.7560094136
 30
0.0
 11
350.9422346831
 21
847.7560094136
 31
0.0
  0
LINE
  5
36B
330
363
100
AcDbEntity
  8
FORMAT
100
AcDbLine
 10
329.9422346831
 20
847.7560094136
 30
0.0
 11
288.2220208033
 21
847.7560094136
 31
0.0
  0
LINE
  5
36C
330
363
100
AcDbEntity
  8
FORMAT
100
AcDbLine
 10
295.2220208033
 20
823.7560094136
 30
0.0
 11
295.2220208033
 21
680.0673932908
 31
0.0
  0
LINE
  5
36D
330
363
100
AcDbEntity
  8
FORMAT
100
AcDbLine
 10
295.2220208033
 20
823.7560094136
 30
0.0
 11
295.2220208033
 21
847.7560094136
 31
0.0
  0
LINE
  5
36E
330
363
100
AcDbEntity
  8
FORMAT
100
AcDbLine
 10
295.2220208033
 20
847.7560094136
 30
0.0
 11
295.2220208033
 21
892.2060094136
 31
0.0
  0
MTEXT
  5
36F
330
363
100
AcDbEntity
  8
FORMAT
100
AcDbMText
 10
263.6398595491
 20
680.0673932908
 30
0.0
 40
24.5
 41
0.0
 71
     1
 72
     1
  1
24
  7
SLDTEXTSTYLE0
 11
6.123233995736766E-17
 21
1.0
 31
0.0
 73
     1
 44
1.0
  0
ENDBLK
  5
365
330
363
100
AcDbEntity
  8
0
100
AcDbBlockEnd
  0
BLOCK
  5
372
330
371
100
AcDbEntity
  8
0
100
AcDbBlockBegin
  2
_D_18
 70
     0
 10
0.0
 20
0.0
 30
0.0
  3
_D_18
  1

  0
SOLID
  5
374
330
371
100
AcDbEntity
  8
FORMAT
100
AcDbTrace
 10
705.202271621
 20
765.7560094136
 30
0.0
 11
701.646271621
 21
742.6420094136
 31
0.0
 12
708.758271621
 22
742.6420094136
 32
0.0
 13
708.758271621
 23
742.6420094136
 33
0.0
  0
SOLID
  5
375
330
371
100
AcDbEntity
  8
FORMAT
100
AcDbTrace
 10
705.202271621
 20
796.7560094132
 30
0.0
 11
708.758271621
 21
819.8700094132
 31
0.0
 12
701.646271621
 22
819.8700094132
 32
0.0
 13
701.646271621
 23
819.8700094132
 33
0.0
  0
LINE
  5
376
330
371
100
AcDbEntity
  8
FORMAT
100
AcDbLine
 10
713.6609846204
 20
796.7560094132
 30
0.0
 11
698.202271621
 21
796.7560094132
 31
0.0
  0
LINE
  5
377
330
371
100
AcDbEntity
  8
FORMAT
100
AcDbLine
 10
705.202271621
 20
765.7560094136
 30
0.0
 11
705.202271621
 21
700.3550411966
 31
0.0
  0
LINE
  5
378
330
371
100
AcDbEntity
  8
FORMAT
100
AcDbLine
 10
705.202271621
 20
765.7560094136
 30
0.0
 11
705.202271621
 21
796.7560094132
 31
0.0
  0
LINE
  5
379
330
371
100
AcDbEntity
  8
FORMAT
100
AcDbLine
 10
705.202271621
 20
796.7560094132
 30
0.0
 11
705.202271621
 21
841.2060094132
 31
0.0
  0
MTEXT
  5
37A
330
371
100
AcDbEntity
  8
FORMAT
100
AcDbMText
 10
673.6201103668
 20
700.3550411966
 30
0.0
 40
24.5
 41
0.0
 71
     1
 72
     1
  1
31
  7
SLDTEXTSTYLE0
 11
6.123233995736766E-17
 21
1.0
 31
0.0
 73
     1
 44
1.0
  0
ENDBLK
  5
373
330
371
100
AcDbEntity
  8
0
100
AcDbBlockEnd
  0
BLOCK
  5
37D
330
37C
100
AcDbEntity
  8
0
100
AcDbBlockBegin
  2
_D_19
 70
     0
 10
0.0
 20
0.0
 30
0.0
  3
_D_19
  1

  0
SOLID
  5
37F
330
37C
100
AcDbEntity
  8
FORMAT
100
AcDbTrace
 10
1272.6208568014
 20
765.7560094136
 30
0.0
 11
1276.1768568014
 21
788.8700094136
 31
0.0
 12
1269.0648568014
 22
788.8700094136
 32
0.0
 13
1269.0648568014
 23
788.8700094136
 33
0.0
  0
SOLID
  5
380
330
37C
100
AcDbEntity
  8
FORMAT
100
AcDbTrace
 10
1272.6208568014
 20
743.5060094136
 30
0.0
 11
1269.0648568014
 21
720.3920094136
 31
0.0
 12
1276.1768568014
 22
720.3920094136
 32
0.0
 13
1276.1768568014
 23
720.3920094136
 33
0.0
  0
LINE
  5
381
330
37C
100
AcDbEntity
  8
FORMAT
100
AcDbLine
 10
1237.6609846204
 20
743.5060094136
 30
0.0
 11
1279.6208568014
 21
743.5060094136
 31
0.0
  0
LINE
  5
382
330
37C
100
AcDbEntity
  8
FORMAT
100
AcDbLine
 10
1272.6208568014
 20
765.7560094136
 30
0.0
 11
1272.6208568014
 21
810.2060094136
 31
0.0
  0
LINE
  5
383
330
37C
100
AcDbEntity
  8
FORMAT
100
AcDbLine
 10
1272.6208568014
 20
765.7560094136
 30
0.0
 11
1272.6208568014
 21
743.5060094136
 31
0.0
  0
LINE
  5
384
330
37C
100
AcDbEntity
  8
FORMAT
100
AcDbLine
 10
1272.6208568014
 20
743.5060094136
 30
0.0
 11
1272.6208568014
 21
676.4227414345
 31
0.0
  0
MTEXT
  5
385
330
37C
100
AcDbEntity
  8
FORMAT
100
AcDbMText
 10
1241.0386955472
 20
676.4227414345
 30
0.0
 40
24.5
 41
0.0
 71
     1
 72
     1
  1
22
  7
SLDTEXTSTYLE0
 11
-7.044195017643634E-15
 21
1.0
 31
0.0
 73
     1
 44
1.0
  0
ENDBLK
  5
37E
330
37C
100
AcDbEntity
  8
0
100
AcDbBlockEnd
  0
BLOCK
  5
38C
330
38B
100
AcDbEntity
  8
0
100
AcDbBlockBegin
  2
SW_NOTE_0_5
 70
     0
 10
0.0
 20
0.0
 30
0.0
  3
SW_NOTE_0_5
  1

  0
MTEXT
  5
38E
330
38B
100
AcDbEntity
  8
FORMAT
 62
     0
100
AcDbMText
 10
-306.6788586454
 20
37.4420424205
 30
0.0
 40
18.5208333333
 41
0.0
 71
     1
 72
     1
  1
ø20
  7
SLDTEXTSTYLE0
 73
     1
 44
1.0
  0
MTEXT
  5
38F
330
38B
100
AcDbEntity
  8
FORMAT
 62
     0
100
AcDbMText
 10
-306.6788586454
 20
5.7475971271
 30
0.0
 40
18.5208333333
 41
0.0
 71
     1
 72
     1
  1
(verdeckte Kabelzuführung)
  7
SLDTEXTSTYLE0
 73
     1
 44
1.0
  0
ENDBLK
  5
38D
330
38B
100
AcDbEntity
  8
0
100
AcDbBlockEnd
  0
BLOCK
  5
393
330
392
100
AcDbEntity
  8
0
100
AcDbBlockBegin
  2
SW_CENTERMARKSYMBOL_0
 70
     0
 10
0.0
 20
0.0
 30
0.0
  3
SW_CENTERMARKSYMBOL_0
  1

  0
LINE
  5
395
330
392
100
AcDbEntity
  8
FORMAT
 62
     0
100
AcDbLine
 10
0.0
 20
0.0
 30
0.0
 11
0.0
 21
2.5
 31
0.0
  0
LINE
  5
396
330
392
100
AcDbEntity
  8
FORMAT
 62
     0
100
AcDbLine
 10
0.0
 20
0.0
 30
0.0
 11
-2.5
 21
0.0
 31
0.0
  0
LINE
  5
397
330
392
100
AcDbEntity
  8
FORMAT
 62
     0
100
AcDbLine
 10
0.0
 20
0.0
 30
0.0
 11
0.0
 21
-2.5
 31
0.0
  0
LINE
  5
398
330
392
100
AcDbEntity
  8
FORMAT
 62
     0
100
AcDbLine
 10
0.0
 20
0.0
 30
0.0
 11
2.5
 21
0.0
 31
0.0
  0
LINE
  5
399
330
392
100
AcDbEntity
  8
FORMAT
 62
     0
100
AcDbLine
 10
0.0
 20
2.5
 30
0.0
 11
0.0
 21
5.0
 31
0.0
  0
LINE
  5
39A
330
392
100
AcDbEntity
  8
FORMAT
 62
     0
100
AcDbLine
 10
-2.5
 20
0.0
 30
0.0
 11
-5.0
 21
0.0
 31
0.0
  0
LINE
  5
39B
330
392
100
AcDbEntity
  8
FORMAT
 62
     0
100
AcDbLine
 10
0.0
 20
-2.5
 30
0.0
 11
0.0
 21
-5.0
 31
0.0
  0
LINE
  5
39C
330
392
100
AcDbEntity
  8
FORMAT
 62
     0
100
AcDbLine
 10
2.5
 20
0.0
 30
0.0
 11
5.0
 21
0.0
 31
0.0
  0
ENDBLK
  5
394
330
392
100
AcDbEntity
  8
0
100
AcDbBlockEnd
  0
BLOCK
  5
39F
330
39E
100
AcDbEntity
  8
0
100
AcDbBlockBegin
  2
SW_CENTERMARKSYMBOL_1
 70
     0
 10
0.0
 20
0.0
 30
0.0
  3
SW_CENTERMARKSYMBOL_1
  1

  0
LINE
  5
3A1
330
39E
100
AcDbEntity
  8
FORMAT
 62
     0
100
AcDbLine
 10
0.0
 20
0.0
 30
0.0
 11
0.0
 21
2.5
 31
0.0
  0
LINE
  5
3A2
330
39E
100
AcDbEntity
  8
FORMAT
 62
     0
100
AcDbLine
 10
0.0
 20
0.0
 30
0.0
 11
-2.5
 21
0.0
 31
0.0
  0
LINE
  5
3A3
330
39E
100
AcDbEntity
  8
FORMAT
 62
     0
100
AcDbLine
 10
0.0
 20
0.0
 30
0.0
 11
0.0
 21
-2.5
 31
0.0
  0
LINE
  5
3A4
330
39E
100
AcDbEntity
  8
FORMAT
 62
     0
100
AcDbLine
 10
0.0
 20
0.0
 30
0.0
 11
2.5
 21
0.0
 31
0.0
  0
LINE
  5
3A5
330
39E
100
AcDbEntity
  8
FORMAT
 62
     0
100
AcDbLine
 10
0.0
 20
2.5
 30
0.0
 11
0.0
 21
5.0
 31
0.0
  0
LINE
  5
3A6
330
39E
100
AcDbEntity
  8
FORMAT
 62
     0
100
AcDbLine
 10
-2.5
 20
0.0
 30
0.0
 11
-5.0
 21
0.0
 31
0.0
  0
LINE
  5
3A7
330
39E
100
AcDbEntity
  8
FORMAT
 62
     0
100
AcDbLine
 10
0.0
 20
-2.5
 30
0.0
 11
0.0
 21
-5.0
 31
0.0
  0
LINE
  5
3A8
330
39E
100
AcDbEntity
  8
FORMAT
 62
     0
100
AcDbLine
 10
2.5
 20
0.0
 30
0.0
 11
5.0
 21
0.0
 31
0.0
  0
ENDBLK
  5
3A0
330
39E
100
AcDbEntity
  8
0
100
AcDbBlockEnd
  0
BLOCK
  5
3AB
330
3AA
100
AcDbEntity
  8
0
100
AcDbBlockBegin
  2
SW_CENTERMARKSYMBOL_2
 70
     0
 10
0.0
 20
0.0
 30
0.0
  3
SW_CENTERMARKSYMBOL_2
  1

  0
LINE
  5
3AD
330
3AA
100
AcDbEntity
  8
FORMAT
 62
     0
100
AcDbLine
 10
0.0
 20
0.0
 30
0.0
 11
0.0
 21
2.5
 31
0.0
  0
LINE
  5
3AE
330
3AA
100
AcDbEntity
  8
FORMAT
 62
     0
100
AcDbLine
 10
0.0
 20
0.0
 30
0.0
 11
-2.5
 21
0.0
 31
0.0
  0
LINE
  5
3AF
330
3AA
100
AcDbEntity
  8
FORMAT
 62
     0
100
AcDbLine
 10
0.0
 20
0.0
 30
0.0
 11
0.0
 21
-2.5
 31
0.0
  0
LINE
  5
3B0
330
3AA
100
AcDbEntity
  8
FORMAT
 62
     0
100
AcDbLine
 10
0.0
 20
0.0
 30
0.0
 11
2.5
 21
0.0
 31
0.0
  0
LINE
  5
3B1
330
3AA
100
AcDbEntity
  8
FORMAT
 62
     0
100
AcDbLine
 10
0.0
 20
5.0
 30
0.0
 11
0.0
 21
5.75
 31
0.0
  0
LINE
  5
3B2
330
3AA
100
AcDbEntity
  8
FORMAT
 62
     0
100
AcDbLine
 10
-5.0
 20
0.0
 30
0.0
 11
-5.75
 21
0.0
 31
0.0
  0
LINE
  5
3B3
330
3AA
100
AcDbEntity
  8
FORMAT
 62
     0
100
AcDbLine
 10
0.0
 20
-5.0
 30
0.0
 11
0.0
 21
-5.75
 31
0.0
  0
LINE
  5
3B4
330
3AA
100
AcDbEntity
  8
FORMAT
 62
     0
100
AcDbLine
 10
5.0
 20
0.0
 30
0.0
 11
5.75
 21
0.0
 31
0.0
  0
ENDBLK
  5
3AC
330
3AA
100
AcDbEntity
  8
0
100
AcDbBlockEnd
  0
BLOCK
  5
3B7
330
3B6
100
AcDbEntity
  8
0
100
AcDbBlockBegin
  2
SW_CENTERMARKSYMBOL_3
 70
     0
 10
0.0
 20
0.0
 30
0.0
  3
SW_CENTERMARKSYMBOL_3
  1

  0
LINE
  5
3B9
330
3B6
100
AcDbEntity
  8
FORMAT
 62
     0
100
AcDbLine
 10
0.0
 20
0.0
 30
0.0
 11
0.0
 21
2.5
 31
0.0
  0
LINE
  5
3BA
330
3B6
100
AcDbEntity
  8
FORMAT
 62
     0
100
AcDbLine
 10
0.0
 20
0.0
 30
0.0
 11
-2.5
 21
0.0
 31
0.0
  0
LINE
  5
3BB
330
3B6
100
AcDbEntity
  8
FORMAT
 62
     0
100
AcDbLine
 10
0.0
 20
0.0
 30
0.0
 11
0.0
 21
-2.5
 31
0.0
  0
LINE
  5
3BC
330
3B6
100
AcDbEntity
  8
FORMAT
 62
     0
100
AcDbLine
 10
0.0
 20
0.0
 30
0.0
 11
2.5
 21
0.0
 31
0.0
  0
LINE
  5
3BD
330
3B6
100
AcDbEntity
  8
FORMAT
 62
     0
100
AcDbLine
 10
0.0
 20
5.0
 30
0.0
 11
0.0
 21
5.75
 31
0.0
  0
LINE
  5
3BE
330
3B6
100
AcDbEntity
  8
FORMAT
 62
     0
100
AcDbLine
 10
-5.0
 20
0.0
 30
0.0
 11
-5.75
 21
0.0
 31
0.0
  0
LINE
  5
3BF
330
3B6
100
AcDbEntity
  8
FORMAT
 62
     0
100
AcDbLine
 10
0.0
 20
-5.0
 30
0.0
 11
0.0
 21
-5.75
 31
0.0
  0
LINE
  5
3C0
330
3B6
100
AcDbEntity
  8
FORMAT
 62
     0
100
AcDbLine
 10
5.0
 20
0.0
 30
0.0
 11
5.75
 21
0.0
 31
0.0
  0
ENDBLK
  5
3B8
330
3B6
100
AcDbEntity
  8
0
100
AcDbBlockEnd
  0
BLOCK
  5
3C3
330
3C2
100
AcDbEntity
  8
0
100
AcDbBlockBegin
  2
SW_CENTERMARKSYMBOL_4
 70
     0
 10
0.0
 20
0.0
 30
0.0
  3
SW_CENTERMARKSYMBOL_4
  1

  0
LINE
  5
3C5
330
3C2
100
AcDbEntity
  8
FORMAT
 62
     0
100
AcDbLine
 10
0.0
 20
0.0
 30
0.0
 11
0.0
 21
2.5
 31
0.0
  0
LINE
  5
3C6
330
3C2
100
AcDbEntity
  8
FORMAT
 62
     0
100
AcDbLine
 10
0.0
 20
0.0
 30
0.0
 11
-2.5
 21
0.0
 31
0.0
  0
LINE
  5
3C7
330
3C2
100
AcDbEntity
  8
FORMAT
 62
     0
100
AcDbLine
 10
0.0
 20
0.0
 30
0.0
 11
0.0
 21
-2.5
 31
0.0
  0
LINE
  5
3C8
330
3C2
100
AcDbEntity
  8
FORMAT
 62
     0
100
AcDbLine
 10
0.0
 20
0.0
 30
0.0
 11
2.5
 21
0.0
 31
0.0
  0
LINE
  5
3C9
330
3C2
100
AcDbEntity
  8
FORMAT
 62
     0
100
AcDbLine
 10
0.0
 20
5.0
 30
0.0
 11
0.0
 21
5.75
 31
0.0
  0
LINE
  5
3CA
330
3C2
100
AcDbEntity
  8
FORMAT
 62
     0
100
AcDbLine
 10
-5.0
 20
0.0
 30
0.0
 11
-5.75
 21
0.0
 31
0.0
  0
LINE
  5
3CB
330
3C2
100
AcDbEntity
  8
FORMAT
 62
     0
100
AcDbLine
 10
0.0
 20
-5.0
 30
0.0
 11
0.0
 21
-5.75
 31
0.0
  0
LINE
  5
3CC
330
3C2
100
AcDbEntity
  8
FORMAT
 62
     0
100
AcDbLine
 10
5.0
 20
0.0
 30
0.0
 11
5.75
 21
0.0
 31
0.0
  0
ENDBLK
  5
3C4
330
3C2
100
AcDbEntity
  8
0
100
AcDbBlockEnd
  0
BLOCK
  5
3CF
330
3CE
100
AcDbEntity
  8
0
100
AcDbBlockBegin
  2
SW_CENTERMARKSYMBOL_5
 70
     0
 10
0.0
 20
0.0
 30
0.0
  3
SW_CENTERMARKSYMBOL_5
  1

  0
LINE
  5
3D1
330
3CE
100
AcDbEntity
  8
FORMAT
 62
     0
100
AcDbLine
 10
0.0
 20
0.0
 30
0.0
 11
0.0
 21
2.5
 31
0.0
  0
LINE
  5
3D2
330
3CE
100
AcDbEntity
  8
FORMAT
 62
     0
100
AcDbLine
 10
0.0
 20
0.0
 30
0.0
 11
-2.5
 21
0.0
 31
0.0
  0
LINE
  5
3D3
330
3CE
100
AcDbEntity
  8
FORMAT
 62
     0
100
AcDbLine
 10
0.0
 20
0.0
 30
0.0
 11
0.0
 21
-2.5
 31
0.0
  0
LINE
  5
3D4
330
3CE
100
AcDbEntity
  8
FORMAT
 62
     0
100
AcDbLine
 10
0.0
 20
0.0
 30
0.0
 11
2.5
 21
0.0
 31
0.0
  0
LINE
  5
3D5
330
3CE
100
AcDbEntity
  8
FORMAT
 62
     0
100
AcDbLine
 10
0.0
 20
5.0
 30
0.0
 11
0.0
 21
5.75
 31
0.0
  0
LINE
  5
3D6
330
3CE
100
AcDbEntity
  8
FORMAT
 62
     0
100
AcDbLine
 10
-5.0
 20
0.0
 30
0.0
 11
-5.75
 21
0.0
 31
0.0
  0
LINE
  5
3D7
330
3CE
100
AcDbEntity
  8
FORMAT
 62
     0
100
AcDbLine
 10
0.0
 20
-5.0
 30
0.0
 11
0.0
 21
-5.75
 31
0.0
  0
LINE
  5
3D8
330
3CE
100
AcDbEntity
  8
FORMAT
 62
     0
100
AcDbLine
 10
5.0
 20
0.0
 30
0.0
 11
5.75
 21
0.0
 31
0.0
  0
ENDBLK
  5
3D0
330
3CE
100
AcDbEntity
  8
0
100
AcDbBlockEnd
  0
BLOCK
  5
3DB
330
3DA
100
AcDbEntity
  8
0
100
AcDbBlockBegin
  2
SW_CENTERMARKSYMBOL_6
 70
     0
 10
0.0
 20
0.0
 30
0.0
  3
SW_CENTERMARKSYMBOL_6
  1

  0
LINE
  5
3DD
330
3DA
100
AcDbEntity
  8
FORMAT
 62
     0
100
AcDbLine
 10
0.0
 20
0.0
 30
0.0
 11
0.0
 21
2.5
 31
0.0
  0
LINE
  5
3DE
330
3DA
100
AcDbEntity
  8
FORMAT
 62
     0
100
AcDbLine
 10
0.0
 20
0.0
 30
0.0
 11
-2.5
 21
0.0
 31
0.0
  0
LINE
  5
3DF
330
3DA
100
AcDbEntity
  8
FORMAT
 62
     0
100
AcDbLine
 10
0.0
 20
0.0
 30
0.0
 11
0.0
 21
-2.5
 31
0.0
  0
LINE
  5
3E0
330
3DA
100
AcDbEntity
  8
FORMAT
 62
     0
100
AcDbLine
 10
0.0
 20
0.0
 30
0.0
 11
2.5
 21
0.0
 31
0.0
  0
LINE
  5
3E1
330
3DA
100
AcDbEntity
  8
FORMAT
 62
     0
100
AcDbLine
 10
0.0
 20
5.0
 30
0.0
 11
0.0
 21
5.75
 31
0.0
  0
LINE
  5
3E2
330
3DA
100
AcDbEntity
  8
FORMAT
 62
     0
100
AcDbLine
 10
-5.0
 20
0.0
 30
0.0
 11
-5.75
 21
0.0
 31
0.0
  0
LINE
  5
3E3
330
3DA
100
AcDbEntity
  8
FORMAT
 62
     0
100
AcDbLine
 10
0.0
 20
-5.0
 30
0.0
 11
0.0
 21
-5.75
 31
0.0
  0
LINE
  5
3E4
330
3DA
100
AcDbEntity
  8
FORMAT
 62
     0
100
AcDbLine
 10
5.0
 20
0.0
 30
0.0
 11
5.75
 21
0.0
 31
0.0
  0
ENDBLK
  5
3DC
330
3DA
100
AcDbEntity
  8
0
100
AcDbBlockEnd
  0
BLOCK
  5
3E7
330
3E6
100
AcDbEntity
  8
0
100
AcDbBlockBegin
  2
SW_CENTERMARKSYMBOL_7
 70
     0
 10
0.0
 20
0.0
 30
0.0
  3
SW_CENTERMARKSYMBOL_7
  1

  0
LINE
  5
3E9
330
3E6
100
AcDbEntity
  8
FORMAT
 62
     0
100
AcDbLine
 10
0.0
 20
0.0
 30
0.0
 11
0.0
 21
2.5
 31
0.0
  0
LINE
  5
3EA
330
3E6
100
AcDbEntity
  8
FORMAT
 62
     0
100
AcDbLine
 10
0.0
 20
0.0
 30
0.0
 11
-2.5
 21
0.0
 31
0.0
  0
LINE
  5
3EB
330
3E6
100
AcDbEntity
  8
FORMAT
 62
     0
100
AcDbLine
 10
0.0
 20
0.0
 30
0.0
 11
0.0
 21
-2.5
 31
0.0
  0
LINE
  5
3EC
330
3E6
100
AcDbEntity
  8
FORMAT
 62
     0
100
AcDbLine
 10
0.0
 20
0.0
 30
0.0
 11
2.5
 21
0.0
 31
0.0
  0
LINE
  5
3ED
330
3E6
100
AcDbEntity
  8
FORMAT
 62
     0
100
AcDbLine
 10
0.0
 20
5.0
 30
0.0
 11
0.0
 21
5.75
 31
0.0
  0
LINE
  5
3EE
330
3E6
100
AcDbEntity
  8
FORMAT
 62
     0
100
AcDbLine
 10
-5.0
 20
0.0
 30
0.0
 11
-5.75
 21
0.0
 31
0.0
  0
LINE
  5
3EF
330
3E6
100
AcDbEntity
  8
FORMAT
 62
     0
100
AcDbLine
 10
0.0
 20
-5.0
 30
0.0
 11
0.0
 21
-5.75
 31
0.0
  0
LINE
  5
3F0
330
3E6
100
AcDbEntity
  8
FORMAT
 62
     0
100
AcDbLine
 10
5.0
 20
0.0
 30
0.0
 11
5.75
 21
0.0
 31
0.0
  0
ENDBLK
  5
3E8
330
3E6
100
AcDbEntity
  8
0
100
AcDbBlockEnd
  0
BLOCK
  5
3F3
330
3F2
100
AcDbEntity
  8
0
100
AcDbBlockBegin
  2
SW_CENTERMARKSYMBOL_8
 70
     0
 10
0.0
 20
0.0
 30
0.0
  3
SW_CENTERMARKSYMBOL_8
  1

  0
LINE
  5
3F5
330
3F2
100
AcDbEntity
  8
FORMAT
 62
     0
100
AcDbLine
 10
0.0
 20
0.0
 30
0.0
 11
0.0
 21
2.5
 31
0.0
  0
LINE
  5
3F6
330
3F2
100
AcDbEntity
  8
FORMAT
 62
     0
100
AcDbLine
 10
0.0
 20
0.0
 30
0.0
 11
-2.5
 21
0.0
 31
0.0
  0
LINE
  5
3F7
330
3F2
100
AcDbEntity
  8
FORMAT
 62
     0
100
AcDbLine
 10
0.0
 20
0.0
 30
0.0
 11
0.0
 21
-2.5
 31
0.0
  0
LINE
  5
3F8
330
3F2
100
AcDbEntity
  8
FORMAT
 62
     0
100
AcDbLine
 10
0.0
 20
0.0
 30
0.0
 11
2.5
 21
0.0
 31
0.0
  0
LINE
  5
3F9
330
3F2
100
AcDbEntity
  8
FORMAT
 62
     0
100
AcDbLine
 10
0.0
 20
5.0
 30
0.0
 11
0.0
 21
12.5
 31
0.0
  0
LINE
  5
3FA
330
3F2
100
AcDbEntity
  8
FORMAT
 62
     0
100
AcDbLine
 10
-5.0
 20
0.0
 30
0.0
 11
-12.5
 21
0.0
 31
0.0
  0
LINE
  5
3FB
330
3F2
100
AcDbEntity
  8
FORMAT
 62
     0
100
AcDbLine
 10
0.0
 20
-5.0
 30
0.0
 11
0.0
 21
-12.5
 31
0.0
  0
LINE
  5
3FC
330
3F2
100
AcDbEntity
  8
FORMAT
 62
     0
100
AcDbLine
 10
5.0
 20
0.0
 30
0.0
 11
12.5
 21
0.0
 31
0.0
  0
ENDBLK
  5
3F4
330
3F2
100
AcDbEntity
  8
0
100
AcDbBlockEnd
  0
BLOCK
  5
3FF
330
3FE
100
AcDbEntity
  8
0
100
AcDbBlockBegin
  2
SW_CENTERMARKSYMBOL_9
 70
     0
 10
0.0
 20
0.0
 30
0.0
  3
SW_CENTERMARKSYMBOL_9
  1

  0
LINE
  5
401
330
3FE
100
AcDbEntity
  8
FORMAT
 62
     0
100
AcDbLine
 10
0.0
 20
0.0
 30
0.0
 11
0.0
 21
2.5
 31
0.0
  0
LINE
  5
402
330
3FE
100
AcDbEntity
  8
FORMAT
 62
     0
100
AcDbLine
 10
0.0
 20
0.0
 30
0.0
 11
-2.5
 21
0.0
 31
0.0
  0
LINE
  5
403
330
3FE
100
AcDbEntity
  8
FORMAT
 62
     0
100
AcDbLine
 10
0.0
 20
0.0
 30
0.0
 11
0.0
 21
-2.5
 31
0.0
  0
LINE
  5
404
330
3FE
100
AcDbEntity
  8
FORMAT
 62
     0
100
AcDbLine
 10
0.0
 20
0.0
 30
0.0
 11
2.5
 21
0.0
 31
0.0
  0
LINE
  5
405
330
3FE
100
AcDbEntity
  8
FORMAT
 62
     0
100
AcDbLine
 10
0.0
 20
5.0
 30
0.0
 11
0.0
 21
12.5
 31
0.0
  0
LINE
  5
406
330
3FE
100
AcDbEntity
  8
FORMAT
 62
     0
100
AcDbLine
 10
-5.0
 20
0.0
 30
0.0
 11
-12.5
 21
0.0
 31
0.0
  0
LINE
  5
407
330
3FE
100
AcDbEntity
  8
FORMAT
 62
     0
100
AcDbLine
 10
0.0
 20
-5.0
 30
0.0
 11
0.0
 21
-12.5
 31
0.0
  0
LINE
  5
408
330
3FE
100
AcDbEntity
  8
FORMAT
 62
     0
100
AcDbLine
 10
5.0
 20
0.0
 30
0.0
 11
12.5
 21
0.0
 31
0.0
  0
ENDBLK
  5
400
330
3FE
100
AcDbEntity
  8
0
100
AcDbBlockEnd
  0
BLOCK
  5
40B
330
40A
100
AcDbEntity
  8
0
100
AcDbBlockBegin
  2
SW_CENTERMARKSYMBOL_10
 70
     0
 10
0.0
 20
0.0
 30
0.0
  3
SW_CENTERMARKSYMBOL_10
  1

  0
LINE
  5
40D
330
40A
100
AcDbEntity
  8
FORMAT
 62
     0
100
AcDbLine
 10
0.0
 20
0.0
 30
0.0
 11
0.0
 21
2.5
 31
0.0
  0
LINE
  5
40E
330
40A
100
AcDbEntity
  8
FORMAT
 62
     0
100
AcDbLine
 10
0.0
 20
0.0
 30
0.0
 11
-2.5
 21
0.0
 31
0.0
  0
LINE
  5
40F
330
40A
100
AcDbEntity
  8
FORMAT
 62
     0
100
AcDbLine
 10
0.0
 20
0.0
 30
0.0
 11
0.0
 21
-2.5
 31
0.0
  0
LINE
  5
410
330
40A
100
AcDbEntity
  8
FORMAT
 62
     0
100
AcDbLine
 10
0.0
 20
0.0
 30
0.0
 11
2.5
 21
0.0
 31
0.0
  0
LINE
  5
411
330
40A
100
AcDbEntity
  8
FORMAT
 62
     0
100
AcDbLine
 10
0.0
 20
5.0
 30
0.0
 11
0.0
 21
12.5
 31
0.0
  0
LINE
  5
412
330
40A
100
AcDbEntity
  8
FORMAT
 62
     0
100
AcDbLine
 10
-5.0
 20
0.0
 30
0.0
 11
-12.5
 21
0.0
 31
0.0
  0
LINE
  5
413
330
40A
100
AcDbEntity
  8
FORMAT
 62
     0
100
AcDbLine
 10
0.0
 20
-5.0
 30
0.0
 11
0.0
 21
-12.5
 31
0.0
  0
LINE
  5
414
330
40A
100
AcDbEntity
  8
FORMAT
 62
     0
100
AcDbLine
 10
5.0
 20
0.0
 30
0.0
 11
12.5
 21
0.0
 31
0.0
  0
ENDBLK
  5
40C
330
40A
100
AcDbEntity
  8
0
100
AcDbBlockEnd
  0
BLOCK
  5
417
330
416
100
AcDbEntity
  8
0
100
AcDbBlockBegin
  2
SW_CENTERMARKSYMBOL_11
 70
     0
 10
0.0
 20
0.0
 30
0.0
  3
SW_CENTERMARKSYMBOL_11
  1

  0
LINE
  5
419
330
416
100
AcDbEntity
  8
FORMAT
 62
     0
100
AcDbLine
 10
0.0
 20
0.0
 30
0.0
 11
0.0
 21
2.5
 31
0.0
  0
LINE
  5
41A
330
416
100
AcDbEntity
  8
FORMAT
 62
     0
100
AcDbLine
 10
0.0
 20
0.0
 30
0.0
 11
-2.5
 21
0.0
 31
0.0
  0
LINE
  5
41B
330
416
100
AcDbEntity
  8
FORMAT
 62
     0
100
AcDbLine
 10
0.0
 20
0.0
 30
0.0
 11
0.0
 21
-2.5
 31
0.0
  0
LINE
  5
41C
330
416
100
AcDbEntity
  8
FORMAT
 62
     0
100
AcDbLine
 10
0.0
 20
0.0
 30
0.0
 11
2.5
 21
0.0
 31
0.0
  0
LINE
  5
41D
330
416
100
AcDbEntity
  8
FORMAT
 62
     0
100
AcDbLine
 10
0.0
 20
5.0
 30
0.0
 11
0.0
 21
12.5
 31
0.0
  0
LINE
  5
41E
330
416
100
AcDbEntity
  8
FORMAT
 62
     0
100
AcDbLine
 10
-5.0
 20
0.0
 30
0.0
 11
-12.5
 21
0.0
 31
0.0
  0
LINE
  5
41F
330
416
100
AcDbEntity
  8
FORMAT
 62
     0
100
AcDbLine
 10
0.0
 20
-5.0
 30
0.0
 11
0.0
 21
-12.5
 31
0.0
  0
LINE
  5
420
330
416
100
AcDbEntity
  8
FORMAT
 62
     0
100
AcDbLine
 10
5.0
 20
0.0
 30
0.0
 11
12.5
 21
0.0
 31
0.0
  0
ENDBLK
  5
418
330
416
100
AcDbEntity
  8
0
100
AcDbBlockEnd
  0
BLOCK
  5
4F1
330
4F0
100
AcDbEntity
  8
0
100
AcDbBlockBegin
  2
_Dot
 70
     0
 10
0.0
 20
0.0
 30
0.0
  3
_Dot
  1

  0
LWPOLYLINE
  5
4F3
330
4F0
100
AcDbEntity
  8
0
  6
ByBlock
 62
     0
100
AcDbPolyline
 90
        2
 70
     1
 43
0.5
 10
-0.25
 20
0.0
 42
1.0
 10
0.25
 20
0.0
 42
1.0
  0
LINE
  5
4F4
330
4F0
100
AcDbEntity
  8
0
  6
ByBlock
 62
     0
370
    -2
100
AcDbLine
 10
-0.5
 20
0.0
 30
0.0
 11
-1.0
 21
0.0
 31
0.0
  0
ENDBLK
  5
4F2
330
4F0
100
AcDbEntity
  8
0
100
AcDbBlockEnd
  0
BLOCK
  5
4F6
330
4F5
100
AcDbEntity
  8
0
100
AcDbBlockBegin
  2
_D_20
 70
     0
 10
0.0
 20
0.0
 30
0.0
  3
_D_20
  1

  0
INSERT
  5
4F8
330
4F5
100
AcDbEntity
  8
FORMAT
100
AcDbBlockReference
  2
_Dot
 10
2299.3038822335
 20
1871.8615092908
 30
0.0
 41
7.112
 42
7.112
 50
180.0
  0
SOLID
  5
4F9
330
4F5
100
AcDbEntity
  8
FORMAT
100
AcDbTrace
 10
2349.3038822335
 20
1871.8615092908
 30
0.0
 11
2326.1898822335
 21
1875.4175092908
 31
0.0
 12
2326.1898822335
 22
1868.3055092908
 32
0.0
 13
2326.1898822335
 23
1868.3055092908
 33
0.0
  0
LINE
  5
4FA
330
4F5
100
AcDbEntity
  8
FORMAT
100
AcDbLine
 10
2299.3038822335
 20
1819.5073192271
 30
0.0
 11
2299.3038822335
 21
1878.8615092908
 31
0.0
  0
LINE
  5
4FB
330
4F5
100
AcDbEntity
  8
FORMAT
100
AcDbLine
 10
2299.3038822335
 20
1871.8615092908
 30
0.0
 11
2349.3038822335
 21
1871.8615092908
 31
0.0
  0
LINE
  5
4FC
330
4F5
100
AcDbEntity
  8
FORMAT
100
AcDbLine
 10
2349.3038822335
 20
1871.8615092908
 30
0.0
 11
2482.526246652
 21
1871.8615092908
 31
0.0
  0
MTEXT
  5
4FD
330
4F5
100
AcDbEntity
  8
FORMAT
100
AcDbMText
 10
2380.3186753839
 20
1895.7361192769
 30
0.0
 40
18.5208333333
 41
0.0
 71
     1
 72
     1
  1
max. +
  7
SLDTEXTSTYLE0
 73
     1
 44
1.0
  0
MTEXT
  5
4FE
330
4F5
100
AcDbEntity
  8
FORMAT
100
AcDbMText
 10
2455.0879674107
 20
1895.7361192769
 30
0.0
 40
18.5208333333
 41
0.0
 71
     1
 72
     1
  1
50
  7
SLDTEXTSTYLE0
 73
     1
 44
1.0
  0
ENDBLK
  5
4F7
330
4F5
100
AcDbEntity
  8
0
100
AcDbBlockEnd
  0
BLOCK
  5
501
330
500
100
AcDbEntity
  8
0
100
AcDbBlockBegin
  2
_D_21
 70
     0
 10
0.0
 20
0.0
 30
0.0
  3
_D_21
  1

  0
INSERT
  5
503
330
500
100
AcDbEntity
  8
FORMAT
100
AcDbBlockReference
  2
_Dot
 10
2299.3038822335
 20
1871.8615092909
 30
0.0
 41
7.112
 42
7.112
 50
0.0
  0
SOLID
  5
504
330
500
100
AcDbEntity
  8
FORMAT
100
AcDbTrace
 10
2269.3038822335
 20
1871.8615092909
 30
0.0
 11
2292.4178822335
 21
1868.3055092909
 31
0.0
 12
2292.4178822335
 22
1875.4175092909
 32
0.0
 13
2292.4178822335
 23
1875.4175092909
 33
0.0
  0
LINE
  5
505
330
500
100
AcDbEntity
  8
FORMAT
100
AcDbLine
 10
2299.3038822335
 20
1819.5073192271
 30
0.0
 11
2299.3038822335
 21
1878.8615092909
 31
0.0
  0
LINE
  5
506
330
500
100
AcDbEntity
  8
FORMAT
100
AcDbLine
 10
2299.3038822335
 20
1871.8615092909
 30
0.0
 11
2269.3038822335
 21
1871.8615092909
 31
0.0
  0
LINE
  5
507
330
500
100
AcDbEntity
  8
FORMAT
100
AcDbLine
 10
2269.3038822335
 20
1871.8615092909
 30
0.0
 11
2143.8152423601
 21
1871.8615092909
 31
0.0
  0
MTEXT
  5
508
330
500
100
AcDbEntity
  8
FORMAT
100
AcDbMText
 10
2143.8152423601
 20
1895.7361192769
 30
0.0
 40
18.5208333333
 41
0.0
 71
     1
 72
     1
  1
max. -
  7
SLDTEXTSTYLE0
 73
     1
 44
1.0
  0
MTEXT
  5
509
330
500
100
AcDbEntity
  8
FORMAT
100
AcDbMText
 10
2212.4109209057
 20
1895.7361192769
 30
0.0
 40
18.5208333333
 41
0.0
 71
     1
 72
     1
  1
30
  7
SLDTEXTSTYLE0
 73
     1
 44
1.0
  0
ENDBLK
  5
502
330
500
100
AcDbEntity
  8
0
100
AcDbBlockEnd
  0
BLOCK
  5
50C
330
50B
100
AcDbEntity
  8
0
100
AcDbBlockBegin
  2
_D_22
 70
     0
 10
0.0
 20
0.0
 30
0.0
  3
_D_22
  1

  0
SOLID
  5
50E
330
50B
100
AcDbEntity
  8
FORMAT
100
AcDbTrace
 10
2299.3038822335
 20
1535.6833659632
 30
0.0
 11
2276.1898822335
 21
1539.2393659632
 31
0.0
 12
2276.1898822335
 22
1532.1273659632
 32
0.0
 13
2276.1898822335
 23
1532.1273659632
 33
0.0
  0
SOLID
  5
50F
330
50B
100
AcDbEntity
  8
FORMAT
100
AcDbTrace
 10
2327.3038822311
 20
1535.6833659632
 30
0.0
 11
2350.4178822311
 21
1532.1273659632
 31
0.0
 12
2350.4178822311
 22
1539.2393659632
 32
0.0
 13
2350.4178822311
 23
1539.2393659632
 33
0.0
  0
LINE
  5
510
330
50B
100
AcDbEntity
  8
FORMAT
100
AcDbLine
 10
2327.3038822311
 20
1575.5073192333
 30
0.0
 11
2327.3038822311
 21
1528.6833659632
 31
0.0
  0
LINE
  5
511
330
50B
100
AcDbEntity
  8
FORMAT
100
AcDbLine
 10
2299.3038822335
 20
1535.6833659632
 30
0.0
 11
2254.8538822335
 21
1535.6833659632
 31
0.0
  0
LINE
  5
512
330
50B
100
AcDbEntity
  8
FORMAT
100
AcDbLine
 10
2299.3038822335
 20
1535.6833659632
 30
0.0
 11
2327.3038822311
 21
1535.6833659632
 31
0.0
  0
LINE
  5
513
330
50B
100
AcDbEntity
  8
FORMAT
100
AcDbLine
 10
2327.3038822311
 20
1535.6833659632
 30
0.0
 11
2396.9903517193
 21
1535.6833659632
 31
0.0
  0
MTEXT
  5
514
330
50B
100
AcDbEntity
  8
FORMAT
100
AcDbMText
 10
2359.5597970909
 20
1567.2655272174
 30
0.0
 40
24.5
 41
0.0
 71
     1
 72
     1
  1
28
  7
SLDTEXTSTYLE0
 73
     1
 44
1.0
  0
ENDBLK
  5
50D
330
50B
100
AcDbEntity
  8
0
100
AcDbBlockEnd
  0
BLOCK
  5
517
330
516
100
AcDbEntity
  8
0
100
AcDbBlockBegin
  2
_D_23
 70
     0
 10
0.0
 20
0.0
 30
0.0
  3
_D_23
  1

  0
SOLID
  5
519
330
516
100
AcDbEntity
  8
FORMAT
100
AcDbTrace
 10
2299.3038822335
 20
1482.3892867327
 30
0.0
 11
2322.4178822335
 21
1478.8332867327
 31
0.0
 12
2322.4178822335
 22
1485.9452867327
 32
0.0
 13
2322.4178822335
 23
1485.9452867327
 33
0.0
  0
SOLID
  5
51A
330
516
100
AcDbEntity
  8
FORMAT
100
AcDbTrace
 10
2419.3038822331
 20
1482.3892867327
 30
0.0
 11
2396.1898822331
 21
1485.9452867327
 31
0.0
 12
2396.1898822331
 22
1478.8332867327
 32
0.0
 13
2396.1898822331
 23
1478.8332867327
 33
0.0
  0
LINE
  5
51B
330
516
100
AcDbEntity
  8
FORMAT
100
AcDbLine
 10
2419.3038822331
 20
1632.0073192271
 30
0.0
 11
2419.3038822331
 21
1475.3892867327
 31
0.0
  0
LINE
  5
51C
330
516
100
AcDbEntity
  8
FORMAT
100
AcDbLine
 10
2299.3038822335
 20
1482.3892867327
 30
0.0
 11
2419.3038822331
 21
1482.3892867327
 31
0.0
  0
MTEXT
  5
51D
330
516
100
AcDbEntity
  8
FORMAT
100
AcDbMText
 10
2331.230966262
 20
1513.971447987
 30
0.0
 40
24.5
 41
0.0
 71
     1
 72
     1
  1
120
  7
SLDTEXTSTYLE0
 73
     1
 44
1.0
  0
ENDBLK
  5
518
330
516
100
AcDbEntity
  8
0
100
AcDbBlockEnd
  0
BLOCK
  5
520
330
51F
100
AcDbEntity
  8
0
100
AcDbBlockBegin
  2
_D_24
 70
     0
 10
0.0
 20
0.0
 30
0.0
  3
_D_24
  1

  0
SOLID
  5
522
330
51F
100
AcDbEntity
  8
FORMAT
100
AcDbTrace
 10
2489.3038822331
 20
1582.0073192333
 30
0.0
 11
2492.8598822331
 21
1605.1213192333
 31
0.0
 12
2485.7478822331
 22
1605.1213192333
 32
0.0
 13
2485.7478822331
 23
1605.1213192333
 33
0.0
  0
SOLID
  5
523
330
51F
100
AcDbEntity
  8
FORMAT
100
AcDbTrace
 10
2489.3038822331
 20
1729.0073192271
 30
0.0
 11
2485.7478822331
 21
1705.8933192271
 31
0.0
 12
2492.8598822331
 22
1705.8933192271
 32
0.0
 13
2492.8598822331
 23
1705.8933192271
 33
0.0
  0
LINE
  5
524
330
51F
100
AcDbEntity
  8
FORMAT
100
AcDbLine
 10
2333.8038822311
 20
1582.0073192333
 30
0.0
 11
2496.3038822331
 21
1582.0073192333
 31
0.0
  0
LINE
  5
525
330
51F
100
AcDbEntity
  8
FORMAT
100
AcDbLine
 10
2421.3038822331
 20
1729.0073192271
 30
0.0
 11
2496.3038822331
 21
1729.0073192271
 31
0.0
  0
LINE
  5
526
330
51F
100
AcDbEntity
  8
FORMAT
100
AcDbLine
 10
2489.3038822331
 20
1582.0073192333
 30
0.0
 11
2489.3038822331
 21
1729.0073192271
 31
0.0
  0
MTEXT
  5
527
330
51F
100
AcDbEntity
  8
FORMAT
100
AcDbMText
 10
2457.7217209788
 20
1627.434403259
 30
0.0
 40
24.5
 41
0.0
 71
     1
 72
     1
  1
147
  7
SLDTEXTSTYLE0
 11
1.837589179357618E-15
 21
1.0
 31
0.0
 73
     1
 44
1.0
  0
ENDBLK
  5
521
330
51F
100
AcDbEntity
  8
0
100
AcDbBlockEnd
  0
BLOCK
  5
52A
330
529
100
AcDbEntity
  8
0
100
AcDbBlockBegin
  2
_D_25
 70
     0
 10
0.0
 20
0.0
 30
0.0
  3
_D_25
  1

  0
SOLID
  5
52C
330
529
100
AcDbEntity
  8
FORMAT
100
AcDbTrace
 10
2191.8322245132
 20
1612.5073192271
 30
0.0
 11
2195.3882245132
 21
1635.6213192271
 31
0.0
 12
2188.2762245132
 22
1635.6213192271
 32
0.0
 13
2188.2762245132
 23
1635.6213192271
 33
0.0
  0
SOLID
  5
52D
330
529
100
AcDbEntity
  8
FORMAT
100
AcDbTrace
 10
2191.8322245132
 20
1730.0073192271
 30
0.0
 11
2188.2762245132
 21
1706.8933192271
 31
0.0
 12
2195.3882245132
 22
1706.8933192271
 32
0.0
 13
2195.3882245132
 23
1706.8933192271
 33
0.0
  0
LINE
  5
52E
330
529
100
AcDbEntity
  8
FORMAT
100
AcDbLine
 10
2262.3038822335
 20
1612.5073192271
 30
0.0
 11
2184.8322245132
 21
1612.5073192271
 31
0.0
  0
LINE
  5
52F
330
529
100
AcDbEntity
  8
FORMAT
100
AcDbLine
 10
2293.3038822331
 20
1730.0073192271
 30
0.0
 11
2184.8322245132
 21
1730.0073192271
 31
0.0
  0
LINE
  5
530
330
529
100
AcDbEntity
  8
FORMAT
100
AcDbLine
 10
2191.8322245132
 20
1612.5073192271
 30
0.0
 11
2191.8322245132
 21
1730.0073192271
 31
0.0
  0
MTEXT
  5
531
330
529
100
AcDbEntity
  8
FORMAT
100
AcDbMText
 10
2160.250063259
 20
1629.1479452702
 30
0.0
 40
24.5
 41
0.0
 71
     1
 72
     1
  1
117,5
  7
SLDTEXTSTYLE0
 11
6.123233995736766E-17
 21
1.0
 31
0.0
 73
     1
 44
1.0
  0
ENDBLK
  5
52B
330
529
100
AcDbEntity
  8
0
100
AcDbBlockEnd
  0
BLOCK
  5
617
330
616
100
AcDbEntity
  8
0
100
AcDbBlockBegin
  2
_D_26
 70
     0
 10
0.0
 20
0.0
 30
0.0
  3
_D_26
  1

  0
ARC
  5
619
330
616
100
AcDbEntity
  8
FORMAT
100
AcDbCircle
 10
2437.4954534188
 20
553.485515565
 30
0.0
 40
42.03885414329039
100
AcDbArc
 50
153.4349488229
 51
206.5650511771
  0
ARC
  5
61A
330
616
100
AcDbEntity
  8
FORMAT
100
AcDbCircle
 10
2399.7246195987
 20
553.485515565
 30
0.0
 40
42.03885414329039
100
AcDbArc
 50
333.4349488229
 51
26.5650511771
  0
SOLID
  5
61B
330
616
100
AcDbEntity
  8
FORMAT
100
AcDbTrace
 10
2320.7521694174
 20
534.6851684529
 30
0.0
 11
2297.6381694174
 21
538.2411684529
 31
0.0
 12
2297.6381694174
 22
531.1291684529
 32
0.0
 13
2297.6381694174
 23
531.1291684529
 33
0.0
  0
SOLID
  5
61C
330
616
100
AcDbEntity
  8
FORMAT
100
AcDbTrace
 10
2359.952169414
 20
534.6851684529
 30
0.0
 11
2383.066169414
 21
531.1291684529
 31
0.0
 12
2383.066169414
 22
538.2411684529
 32
0.0
 13
2383.066169414
 23
538.2411684529
 33
0.0
  0
LINE
  5
61D
330
616
100
AcDbEntity
  8
FORMAT
100
AcDbLine
 10
2320.7521694174
 20
607.5372785573
 30
0.0
 11
2320.7521694174
 21
527.6851684529
 31
0.0
  0
LINE
  5
61E
330
616
100
AcDbEntity
  8
FORMAT
100
AcDbLine
 10
2359.952169414
 20
663.0463204477
 30
0.0
 11
2359.952169414
 21
527.6851684529
 31
0.0
  0
LINE
  5
61F
330
616
100
AcDbEntity
  8
FORMAT
100
AcDbLine
 10
2320.7521694174
 20
534.6851684529
 30
0.0
 11
2276.3021694173
 21
534.6851684529
 31
0.0
  0
LINE
  5
620
330
616
100
AcDbEntity
  8
FORMAT
100
AcDbLine
 10
2320.7521694174
 20
534.6851684529
 30
0.0
 11
2359.952169414
 21
534.6851684529
 31
0.0
  0
LINE
  5
621
330
616
100
AcDbEntity
  8
FORMAT
100
AcDbLine
 10
2359.952169414
 20
534.6851684529
 30
0.0
 11
2441.7634722969
 21
534.6851684529
 31
0.0
  0
MTEXT
  5
622
330
616
100
AcDbEntity
  8
FORMAT
100
AcDbMText
 10
2399.8947591946
 20
566.2673297071
 30
0.0
 40
24.5
 41
0.0
 71
     1
 72
     1
  1
28
  7
SLDTEXTSTYLE0
 73
     1
 44
1.0
  0
ENDBLK
  5
618
330
616
100
AcDbEntity
  8
0
100
AcDbBlockEnd
  0
BLOCK
  5
625
330
624
100
AcDbEntity
  8
0
100
AcDbBlockBegin
  2
_D_27
 70
     0
 10
0.0
 20
0.0
 30
0.0
  3
_D_27
  1

  0
ARC
  5
627
330
624
100
AcDbEntity
  8
FORMAT
100
AcDbCircle
 10
2494.8143823358
 20
621.6516838045
 30
0.0
 40
42.03885414329039
100
AcDbArc
 50
243.4349488229
 51
296.5650511771
  0
ARC
  5
628
330
624
100
AcDbEntity
  8
FORMAT
100
AcDbCircle
 10
2494.8143823358
 20
583.8808499844
 30
0.0
 40
42.03885414329039
100
AcDbArc
 50
63.4349488229
 51
116.5650511771
  0
SOLID
  5
629
330
624
100
AcDbEntity
  8
FORMAT
100
AcDbTrace
 10
2513.6147294479
 20
669.3463204477
 30
0.0
 11
2510.0587294479
 21
646.2323204477
 31
0.0
 12
2517.1707294479
 22
646.2323204477
 32
0.0
 13
2517.1707294479
 23
646.2323204477
 33
0.0
  0
SOLID
  5
62A
330
624
100
AcDbEntity
  8
FORMAT
100
AcDbTrace
 10
2513.6147294479
 20
693.1463204477
 30
0.0
 11
2517.1707294479
 21
716.2603204477
 31
0.0
 12
2510.0587294479
 22
716.2603204477
 32
0.0
 13
2510.0587294479
 23
716.2603204477
 33
0.0
  0
LINE
  5
62B
330
624
100
AcDbEntity
  8
FORMAT
100
AcDbLine
 10
2366.252169414
 20
669.3463204477
 30
0.0
 11
2520.6147294479
 21
669.3463204477
 31
0.0
  0
LINE
  5
62C
330
624
100
AcDbEntity
  8
FORMAT
100
AcDbLine
 10
2366.252169414
 20
693.1463204477
 30
0.0
 11
2520.6147294479
 21
693.1463204477
 31
0.0
  0
LINE
  5
62D
330
624
100
AcDbEntity
  8
FORMAT
100
AcDbLine
 10
2513.6147294479
 20
669.3463204477
 30
0.0
 11
2513.6147294479
 21
579.6128294765
 31
0.0
  0
LINE
  5
62E
330
624
100
AcDbEntity
  8
FORMAT
100
AcDbLine
 10
2513.6147294479
 20
669.3463204477
 30
0.0
 11
2513.6147294479
 21
693.1463204477
 31
0.0
  0
LINE
  5
62F
330
624
100
AcDbEntity
  8
FORMAT
100
AcDbLine
 10
2513.6147294479
 20
693.1463204477
 30
0.0
 11
2513.6147294479
 21
737.5963204477
 31
0.0
  0
MTEXT
  5
630
330
624
100
AcDbEntity
  8
FORMAT
100
AcDbMText
 10
2482.0325681937
 20
584.0509895803
 30
0.0
 40
24.5
 41
0.0
 71
     1
 72
     1
  1
17
  7
SLDTEXTSTYLE0
 11
-1.191767205047844E-13
 21
1.0
 31
0.0
 73
     1
 44
1.0
  0
ENDBLK
  5
626
330
624
100
AcDbEntity
  8
0
100
AcDbBlockEnd
  0
BLOCK
  5
633
330
632
100
AcDbEntity
  8
0
100
AcDbBlockBegin
  2
_D_28
 70
     0
 10
0.0
 20
0.0
 30
0.0
  3
_D_28
  1

  0
SOLID
  5
635
330
632
100
AcDbEntity
  8
FORMAT
100
AcDbTrace
 10
2562.301566127
 20
693.1463204477
 30
0.0
 11
2558.745566127
 21
670.0323204477
 31
0.0
 12
2565.857566127
 22
670.0323204477
 32
0.0
 13
2565.857566127
 23
670.0323204477
 33
0.0
  0
SOLID
  5
636
330
632
100
AcDbEntity
  8
FORMAT
100
AcDbTrace
 10
2562.301566127
 20
696.6463204332
 30
0.0
 11
2565.857566127
 21
719.7603204332
 31
0.0
 12
2558.745566127
 22
719.7603204332
 32
0.0
 13
2558.745566127
 23
719.7603204332
 33
0.0
  0
LINE
  5
637
330
632
100
AcDbEntity
  8
FORMAT
100
AcDbLine
 10
2366.252169414
 20
693.1463204477
 30
0.0
 11
2569.301566127
 21
693.1463204477
 31
0.0
  0
LINE
  5
638
330
632
100
AcDbEntity
  8
FORMAT
100
AcDbLine
 10
2392.286495413
 20
696.6463204332
 30
0.0
 11
2569.301566127
 21
696.6463204332
 31
0.0
  0
LINE
  5
639
330
632
100
AcDbEntity
  8
FORMAT
100
AcDbLine
 10
2562.301566127
 20
693.1463204477
 30
0.0
 11
2562.301566127
 21
579.3721697508
 31
0.0
  0
LINE
  5
63A
330
632
100
AcDbEntity
  8
FORMAT
100
AcDbLine
 10
2562.301566127
 20
693.1463204477
 30
0.0
 11
2562.301566127
 21
696.6463204332
 31
0.0
  0
LINE
  5
63B
330
632
100
AcDbEntity
  8
FORMAT
100
AcDbLine
 10
2562.301566127
 20
696.6463204332
 30
0.0
 11
2562.301566127
 21
741.0963204332
 31
0.0
  0
MTEXT
  5
63C
330
632
100
AcDbEntity
  8
FORMAT
100
AcDbMText
 10
2530.7194048728
 20
579.3721697508
 30
0.0
 40
24.5
 41
0.0
 71
     1
 72
     1
  1
2,5
  7
SLDTEXTSTYLE0
 11
-8.431571753155453E-14
 21
1.0
 31
0.0
 73
     1
 44
1.0
  0
ENDBLK
  5
634
330
632
100
AcDbEntity
  8
0
100
AcDbBlockEnd
  0
BLOCK
  5
63F
330
63E
100
AcDbEntity
  8
0
100
AcDbBlockBegin
  2
_D_29
 70
     0
 10
0.0
 20
0.0
 30
0.0
  3
_D_29
  1

  0
SOLID
  5
641
330
63E
100
AcDbEntity
  8
FORMAT
100
AcDbTrace
 10
2600.7521694171
 20
696.6463204332
 30
0.0
 11
2597.1961694171
 21
673.5323204332
 31
0.0
 12
2604.3081694171
 22
673.5323204332
 32
0.0
 13
2604.3081694171
 23
673.5323204332
 33
0.0
  0
SOLID
  5
642
330
63E
100
AcDbEntity
  8
FORMAT
100
AcDbTrace
 10
2600.7521694171
 20
742.1463204329
 30
0.0
 11
2604.3081694171
 21
765.2603204329
 31
0.0
 12
2597.1961694171
 22
765.2603204329
 32
0.0
 13
2597.1961694171
 23
765.2603204329
 33
0.0
  0
LINE
  5
643
330
63E
100
AcDbEntity
  8
FORMAT
100
AcDbLine
 10
2392.286495413
 20
696.6463204332
 30
0.0
 11
2607.7521694171
 21
696.6463204332
 31
0.0
  0
LINE
  5
644
330
63E
100
AcDbEntity
  8
FORMAT
100
AcDbLine
 10
2488.7521694168
 20
742.1463204329
 30
0.0
 11
2607.7521694171
 21
742.1463204329
 31
0.0
  0
LINE
  5
645
330
63E
100
AcDbEntity
  8
FORMAT
100
AcDbLine
 10
2600.7521694171
 20
696.6463204332
 30
0.0
 11
2600.7521694171
 21
652.1963204332
 31
0.0
  0
LINE
  5
646
330
63E
100
AcDbEntity
  8
FORMAT
100
AcDbLine
 10
2600.7521694171
 20
696.6463204332
 30
0.0
 11
2600.7521694171
 21
742.1463204329
 31
0.0
  0
LINE
  5
647
330
63E
100
AcDbEntity
  8
FORMAT
100
AcDbLine
 10
2600.7521694171
 20
742.1463204329
 30
0.0
 11
2600.7521694171
 21
838.2679191422
 31
0.0
  0
MTEXT
  5
648
330
63E
100
AcDbEntity
  8
FORMAT
100
AcDbMText
 10
2569.1700081629
 20
772.7644485426
 30
0.0
 40
24.5
 41
0.0
 71
     1
 72
     1
  1
32,5
  7
SLDTEXTSTYLE0
 11
3.835990623682900E-15
 21
1.0
 31
0.0
 73
     1
 44
1.0
  0
ENDBLK
  5
640
330
63E
100
AcDbEntity
  8
0
100
AcDbBlockEnd
  0
BLOCK
  5
64C
330
64B
100
AcDbEntity
  8
0
100
AcDbBlockBegin
  2
_D_30
 70
     0
 10
0.0
 20
0.0
 30
0.0
  3
_D_30
  1

  0
SOLID
  5
64E
330
64B
100
AcDbEntity
  8
FORMAT
100
AcDbTrace
 10
2197.213458833
 20
706.446320433
 30
0.0
 11
2193.657458833
 21
683.332320433
 31
0.0
 12
2200.769458833
 22
683.332320433
 32
0.0
 13
2200.769458833
 23
683.332320433
 33
0.0
  0
SOLID
  5
64F
330
64B
100
AcDbEntity
  8
FORMAT
100
AcDbTrace
 10
2197.213458833
 20
712.0463204329
 30
0.0
 11
2200.769458833
 21
735.1603204329
 31
0.0
 12
2193.657458833
 22
735.1603204329
 32
0.0
 13
2193.657458833
 23
735.1603204329
 33
0.0
  0
LINE
  5
650
330
64B
100
AcDbEntity
  8
FORMAT
100
AcDbLine
 10
2318.3666250142
 20
706.446320433
 30
0.0
 11
2190.213458833
 21
706.446320433
 31
0.0
  0
LINE
  5
651
330
64B
100
AcDbEntity
  8
FORMAT
100
AcDbLine
 10
2271.7521694174
 20
712.0463204329
 30
0.0
 11
2190.213458833
 21
712.0463204329
 31
0.0
  0
LINE
  5
652
330
64B
100
AcDbEntity
  8
FORMAT
100
AcDbLine
 10
2197.213458833
 20
706.446320433
 30
0.0
 11
2197.213458833
 21
647.8560684779
 31
0.0
  0
LINE
  5
653
330
64B
100
AcDbEntity
  8
FORMAT
100
AcDbLine
 10
2197.213458833
 20
706.446320433
 30
0.0
 11
2197.213458833
 21
712.0463204329
 31
0.0
  0
LINE
  5
654
330
64B
100
AcDbEntity
  8
FORMAT
100
AcDbLine
 10
2197.213458833
 20
712.0463204329
 30
0.0
 11
2197.213458833
 21
756.4963204329
 31
0.0
  0
MTEXT
  5
655
330
64B
100
AcDbEntity
  8
FORMAT
100
AcDbMText
 10
2165.6312975787
 20
647.8560684779
 30
0.0
 40
24.5
 41
0.0
 71
     1
 72
     1
  1
4
  7
SLDTEXTSTYLE0
 11
6.123233995736766E-17
 21
1.0
 31
0.0
 73
     1
 44
1.0
  0
MTEXT
  5
656
330
64B
100
AcDbEntity
  8
FORMAT
100
AcDbMText
 10
2165.6312975787
 20
666.5713457921
 30
0.0
 40
24.5
 41
0.0
 71
     1
 72
     1
  1
*
  7
SLDTEXTSTYLE0
 11
6.123233995736766E-17
 21
1.0
 31
0.0
 73
     1
 44
1.0
  0
ENDBLK
  5
64D
330
64B
100
AcDbEntity
  8
0
100
AcDbBlockEnd
  0
BLOCK
  5
65A
330
659
100
AcDbEntity
  8
0
100
AcDbBlockBegin
  2
_D_31
 70
     0
 10
0.0
 20
0.0
 30
0.0
  3
_D_31
  1

  0
SOLID
  5
65C
330
659
100
AcDbEntity
  8
FORMAT
100
AcDbTrace
 10
2128.3948982626
 20
693.1463204477
 30
0.0
 11
2124.8388982626
 21
670.0323204477
 31
0.0
 12
2131.9508982626
 22
670.0323204477
 32
0.0
 13
2131.9508982626
 23
670.0323204477
 33
0.0
  0
INSERT
  5
65D
330
659
100
AcDbEntity
  8
FORMAT
100
AcDbBlockReference
  2
_Dot
 10
2128.3948982626
 20
712.0463204329
 30
994.4496350123
 41
7.112
 42
7.112
 50
270.0
  0
LINE
  5
65E
330
659
100
AcDbEntity
  8
FORMAT
100
AcDbLine
 10
2314.452169414
 20
693.1463204477
 30
0.0
 11
2121.3948982626
 21
693.1463204477
 31
0.0
  0
LINE
  5
65F
330
659
100
AcDbEntity
  8
FORMAT
100
AcDbLine
 10
2271.7521694174
 20
712.0463204329
 30
0.0
 11
2121.3948982626
 21
712.0463204329
 31
0.0
  0
LINE
  5
660
330
659
100
AcDbEntity
  8
FORMAT
100
AcDbLine
 10
2128.3948982626
 20
693.1463204477
 30
0.0
 11
2128.3948982626
 21
602.5955367148
 31
0.0
  0
LINE
  5
661
330
659
100
AcDbEntity
  8
FORMAT
100
AcDbLine
 10
2128.3948982626
 20
693.1463204477
 30
0.0
 11
2128.3948982626
 21
712.0463204329
 31
0.0
  0
LINE
  5
662
330
659
100
AcDbEntity
  8
FORMAT
100
AcDbLine
 10
2128.3948982626
 20
712.0463204329
 30
0.0
 11
2128.3948982626
 21
756.4963204329
 31
0.0
  0
MTEXT
  5
663
330
659
100
AcDbEntity
  8
FORMAT
100
AcDbMText
 10
2096.8127370084
 20
602.5955367148
 30
0.0
 40
24.5
 41
0.0
 71
     1
 72
     1
  1
13,5
  7
SLDTEXTSTYLE0
 11
6.123233995736766E-17
 21
1.0
 31
0.0
 73
     1
 44
1.0
  0
ENDBLK
  5
65B
330
659
100
AcDbEntity
  8
0
100
AcDbBlockEnd
  0
BLOCK
  5
667
330
666
100
AcDbEntity
  8
0
100
AcDbBlockBegin
  2
_D_32
 70
     0
 10
0.0
 20
0.0
 30
0.0
  3
_D_32
  1

  0
INSERT
  5
669
330
666
100
AcDbEntity
  8
FORMAT
100
AcDbBlockReference
  2
_Dot
 10
2128.3948982626
 20
712.0463204329
 30
994.4496350123
 41
7.112
 42
7.112
 50
90.0
  0
SOLID
  5
66A
330
666
100
AcDbEntity
  8
FORMAT
100
AcDbTrace
 10
2128.3948982626
 20
742.1463204329
 30
0.0
 11
2131.9508982626
 21
765.2603204329
 31
0.0
 12
2124.8388982626
 22
765.2603204329
 32
0.0
 13
2124.8388982626
 23
765.2603204329
 33
0.0
  0
LINE
  5
66B
330
666
100
AcDbEntity
  8
FORMAT
100
AcDbLine
 10
2271.7521694174
 20
712.0463204329
 30
0.0
 11
2121.3948982626
 21
712.0463204329
 31
0.0
  0
LINE
  5
66C
330
666
100
AcDbEntity
  8
FORMAT
100
AcDbLine
 10
2313.7521694168
 20
742.1463204329
 30
0.0
 11
2121.3948982626
 21
742.1463204329
 31
0.0
  0
LINE
  5
66D
330
666
100
AcDbEntity
  8
FORMAT
100
AcDbLine
 10
2128.3948982626
 20
712.0463204329
 30
0.0
 11
2128.3948982626
 21
667.5963204329
 31
0.0
  0
LINE
  5
66E
330
666
100
AcDbEntity
  8
FORMAT
100
AcDbLine
 10
2128.3948982626
 20
712.0463204329
 30
0.0
 11
2128.3948982626
 21
742.1463204329
 31
0.0
  0
LINE
  5
66F
330
666
100
AcDbEntity
  8
FORMAT
100
AcDbLine
 10
2128.3948982626
 20
742.1463204329
 30
0.0
 11
2128.3948982626
 21
847.3059230651
 31
0.0
  0
MTEXT
  5
670
330
666
100
AcDbEntity
  8
FORMAT
100
AcDbMText
 10
2096.8127370084
 20
781.8024524654
 30
0.0
 40
24.5
 41
0.0
 71
     1
 72
     1
  1
21,5
  7
SLDTEXTSTYLE0
 11
3.835990623682900E-15
 21
1.0
 31
0.0
 73
     1
 44
1.0
  0
ENDBLK
  5
668
330
666
100
AcDbEntity
  8
0
100
AcDbBlockEnd
  0
BLOCK
  5
692
330
691
100
AcDbEntity
  8
0
100
AcDbBlockBegin
  2
_D_33
 70
     0
 10
0.0
 20
0.0
 30
0.0
  3
_D_33
  1

  0
SOLID
  5
694
330
691
100
AcDbEntity
  8
FORMAT
100
AcDbTrace
 10
1734.5552190608
 20
280.7372903663
 30
0.0
 11
1730.9992190608
 21
257.6232903663
 31
0.0
 12
1738.1112190608
 22
257.6232903663
 32
0.0
 13
1738.1112190608
 23
257.6232903663
 33
0.0
  0
SOLID
  5
695
330
691
100
AcDbEntity
  8
FORMAT
100
AcDbTrace
 10
1734.5552190608
 20
291.2372903663
 30
0.0
 11
1738.1112190608
 21
314.3512903663
 31
0.0
 12
1730.9992190608
 22
314.3512903663
 32
0.0
 13
1730.9992190608
 23
314.3512903663
 33
0.0
  0
LINE
  5
696
330
691
100
AcDbEntity
  8
FORMAT
100
AcDbLine
 10
1788.8314861842
 20
280.7372903663
 30
0.0
 11
1727.5552190608
 21
280.7372903663
 31
0.0
  0
LINE
  5
697
330
691
100
AcDbEntity
  8
FORMAT
100
AcDbLine
 10
1813.1600536891
 20
291.2372903663
 30
0.0
 11
1727.5552190608
 21
291.2372903663
 31
0.0
  0
LINE
  5
698
330
691
100
AcDbEntity
  8
FORMAT
100
AcDbLine
 10
1734.5552190608
 20
280.7372903663
 30
0.0
 11
1734.5552190608
 21
204.4068589228
 31
0.0
  0
LINE
  5
699
330
691
100
AcDbEntity
  8
FORMAT
100
AcDbLine
 10
1734.5552190608
 20
280.7372903663
 30
0.0
 11
1734.5552190608
 21
291.2372903663
 31
0.0
  0
LINE
  5
69A
330
691
100
AcDbEntity
  8
FORMAT
100
AcDbLine
 10
1734.5552190608
 20
291.2372903663
 30
0.0
 11
1734.5552190608
 21
335.6872903663
 31
0.0
  0
MTEXT
  5
69B
330
691
100
AcDbEntity
  8
FORMAT
100
AcDbMText
 10
1702.9730578066
 20
204.4068589228
 30
0.0
 40
24.5
 41
0.0
 71
     1
 72
     1
  1
7,5
  7
SLDTEXTSTYLE0
 11
6.123233995736766E-17
 21
1.0
 31
0.0
 73
     1
 44
1.0
  0
ENDBLK
  5
693
330
691
100
AcDbEntity
  8
0
100
AcDbBlockEnd
  0
BLOCK
  5
69F
330
69E
100
AcDbEntity
  8
0
100
AcDbBlockBegin
  2
_D_34
 70
     0
 10
0.0
 20
0.0
 30
0.0
  3
_D_34
  1

  0
SOLID
  5
6A1
330
69E
100
AcDbEntity
  8
FORMAT
100
AcDbTrace
 10
1686.8362640778
 20
291.2372903663
 30
0.0
 11
1690.3922640778
 21
314.3512903663
 31
0.0
 12
1683.2802640778
 22
314.3512903663
 32
0.0
 13
1683.2802640778
 23
314.3512903663
 33
0.0
  0
SOLID
  5
6A2
330
69E
100
AcDbEntity
  8
FORMAT
100
AcDbTrace
 10
1686.8362640778
 20
397.6372903663
 30
0.0
 11
1683.2802640778
 21
374.5232903663
 31
0.0
 12
1690.3922640778
 22
374.5232903663
 32
0.0
 13
1690.3922640778
 23
374.5232903663
 33
0.0
  0
LINE
  5
6A3
330
69E
100
AcDbEntity
  8
FORMAT
100
AcDbLine
 10
1821.2100536891
 20
291.2372903663
 30
0.0
 11
1679.8362640778
 21
291.2372903663
 31
0.0
  0
LINE
  5
6A4
330
69E
100
AcDbEntity
  8
FORMAT
100
AcDbLine
 10
1813.1600536891
 20
397.6372903663
 30
0.0
 11
1679.8362640778
 21
397.6372903663
 31
0.0
  0
LINE
  5
6A5
330
69E
100
AcDbEntity
  8
FORMAT
100
AcDbLine
 10
1686.8362640778
 20
291.2372903663
 30
0.0
 11
1686.8362640778
 21
397.6372903663
 31
0.0
  0
MTEXT
  5
6A6
330
69E
100
AcDbEntity
  8
FORMAT
100
AcDbMText
 10
1655.2541028236
 20
325.7220130522
 30
0.0
 40
24.5
 41
0.0
 71
     1
 72
     1
  1
76
  7
SLDTEXTSTYLE0
 11
6.123233995736766E-17
 21
1.0
 31
0.0
 73
     1
 44
1.0
  0
ENDBLK
  5
6A0
330
69E
100
AcDbEntity
  8
0
100
AcDbBlockEnd
  0
BLOCK
  5
6A9
330
6A8
100
AcDbEntity
  8
0
100
AcDbBlockBegin
  2
SW_CENTERMARKSYMBOL_12
 70
     0
 10
0.0
 20
0.0
 30
0.0
  3
SW_CENTERMARKSYMBOL_12
  1

  0
LINE
  5
6AB
330
6A8
100
AcDbEntity
  8
FORMAT
 62
     0
100
AcDbLine
 10
0.0
 20
0.0
 30
0.0
 11
0.0
 21
3.4999966621
 31
0.0
  0
LINE
  5
6AC
330
6A8
100
AcDbEntity
  8
FORMAT
 62
     0
100
AcDbLine
 10
0.0
 20
0.0
 30
0.0
 11
-3.4999966621
 21
0.0
 31
0.0
  0
LINE
  5
6AD
330
6A8
100
AcDbEntity
  8
FORMAT
 62
     0
100
AcDbLine
 10
0.0
 20
0.0
 30
0.0
 11
0.0
 21
-3.4999966621
 31
0.0
  0
LINE
  5
6AE
330
6A8
100
AcDbEntity
  8
FORMAT
 62
     0
100
AcDbLine
 10
0.0
 20
0.0
 30
0.0
 11
3.4999966621
 21
0.0
 31
0.0
  0
LINE
  5
6AF
330
6A8
100
AcDbEntity
  8
FORMAT
 62
     0
100
AcDbLine
 10
0.0
 20
7.0000037551
 30
0.0
 11
0.0
 21
8.0500006676
 31
0.0
  0
LINE
  5
6B0
330
6A8
100
AcDbEntity
  8
FORMAT
 62
     0
100
AcDbLine
 10
-6.9999933243
 20
0.0
 30
0.0
 11
-8.0500006676
 21
0.0
 31
0.0
  0
LINE
  5
6B1
330
6A8
100
AcDbEntity
  8
FORMAT
 62
     0
100
AcDbLine
 10
0.0
 20
-7.0000037551
 30
0.0
 11
0.0
 21
-8.0500006676
 31
0.0
  0
LINE
  5
6B2
330
6A8
100
AcDbEntity
  8
FORMAT
 62
     0
100
AcDbLine
 10
6.9999933243
 20
0.0
 30
0.0
 11
8.0500006676
 21
0.0
 31
0.0
  0
ENDBLK
  5
6AA
330
6A8
100
AcDbEntity
  8
0
100
AcDbBlockEnd
  0
BLOCK
  5
6B5
330
6B4
100
AcDbEntity
  8
0
100
AcDbBlockBegin
  2
SW_CENTERMARKSYMBOL_13
 70
     0
 10
0.0
 20
0.0
 30
0.0
  3
SW_CENTERMARKSYMBOL_13
  1

  0
LINE
  5
6B7
330
6B4
100
AcDbEntity
  8
FORMAT
 62
     0
100
AcDbLine
 10
0.0
 20
0.0
 30
0.0
 11
0.0
 21
3.4999966621
 31
0.0
  0
LINE
  5
6B8
330
6B4
100
AcDbEntity
  8
FORMAT
 62
     0
100
AcDbLine
 10
0.0
 20
0.0
 30
0.0
 11
-3.4999966621
 21
0.0
 31
0.0
  0
LINE
  5
6B9
330
6B4
100
AcDbEntity
  8
FORMAT
 62
     0
100
AcDbLine
 10
0.0
 20
0.0
 30
0.0
 11
0.0
 21
-3.5000175238
 31
0.0
  0
LINE
  5
6BA
330
6B4
100
AcDbEntity
  8
FORMAT
 62
     0
100
AcDbLine
 10
0.0
 20
0.0
 30
0.0
 11
3.4999966621
 21
0.0
 31
0.0
  0
LINE
  5
6BB
330
6B4
100
AcDbEntity
  8
FORMAT
 62
     0
100
AcDbLine
 10
0.0
 20
6.9999933243
 30
0.0
 11
0.0
 21
8.0500006676
 31
0.0
  0
LINE
  5
6BC
330
6B4
100
AcDbEntity
  8
FORMAT
 62
     0
100
AcDbLine
 10
-6.9999933243
 20
0.0
 30
0.0
 11
-8.0500006676
 21
0.0
 31
0.0
  0
LINE
  5
6BD
330
6B4
100
AcDbEntity
  8
FORMAT
 62
     0
100
AcDbLine
 10
0.0
 20
-7.0000141859
 30
0.0
 11
0.0
 21
-8.0500006676
 31
0.0
  0
LINE
  5
6BE
330
6B4
100
AcDbEntity
  8
FORMAT
 62
     0
100
AcDbLine
 10
6.9999933243
 20
0.0
 30
0.0
 11
8.0500006676
 21
0.0
 31
0.0
  0
ENDBLK
  5
6B6
330
6B4
100
AcDbEntity
  8
0
100
AcDbBlockEnd
  0
ENDSEC
  0
SECTION
  2
ENTITIES
  0
LINE
  5
CA
330
1F
100
AcDbEntity
  8
FORMAT
  6
Continuous
 62
     7
370
    18
100
AcDbLine
 10
2648.7467156628
 20
249.0548071362
 30
0.0
 11
2121.8704816337
 21
249.0548071362
 31
0.0
  0
LINE
  5
CB
330
1F
100
AcDbEntity
  8
FORMAT
  6
Continuous
 62
     7
370
    18
100
AcDbLine
 10
2648.7467156628
 20
341.1944719343
 30
0.0
 11
2869.6070185003
 21
341.1944719343
 31
0.0
  0
LINE
  5
CC
330
1F
100
AcDbEntity
  8
0
  6
Continuous
 62
     7
370
    18
100
AcDbLine
 10
2552.9704263625
 20
249.0548071362
 30
0.0
 11
2552.9704263625
 21
181.3583509723
 31
0.0
  0
LINE
  5
CD
330
1F
100
AcDbEntity
  8
FORMAT
100
AcDbLine
 10
2869.6070185003
 20
2009.0
 30
0.0
 11
69.6070185003
 21
2009.0
 31
0.0
  0
LINE
  5
CE
330
1F
100
AcDbEntity
  8
FORMAT
100
AcDbLine
 10
69.6070185003
 20
2009.0
 30
0.0
 11
69.6070185003
 21
70.0
 31
0.0
  0
LINE
  5
CF
330
1F
100
AcDbEntity
  8
BEMASSUNG
  6
Continuous
 62
     7
370
    18
100
AcDbLine
 10
2648.7467156628
 20
283.9466531596
 30
0.0
 11
2869.6070185003
 21
283.9466531596
 31
0.0
  0
LINE
  5
D0
330
1F
100
AcDbEntity
  8
FORMAT
100
AcDbLine
 10
69.6070185003
 20
70.0
 30
0.0
 11
2869.6070185003
 21
70.0
 31
0.0
  0
LINE
  5
D1
330
1F
100
AcDbEntity
  8
FORMAT
100
AcDbLine
 10
2869.6070185003
 20
70.0
 30
0.0
 11
2869.6070185003
 21
2009.0
 31
0.0
  0
LINE
  5
D2
330
1F
100
AcDbEntity
  8
0
  6
Continuous
 62
     7
370
    18
100
AcDbLine
 10
2121.8704816337
 20
368.7467824209
 30
0.0
 11
2121.8704816337
 21
70.0000160588
 31
0.0
  0
LINE
  5
D3
330
1F
100
AcDbEntity
  8
0
  6
Continuous
 62
     7
370
    18
100
AcDbLine
 10
2766.39523512
 20
70.0
 30
0.0
 11
2766.39523512
 21
135.4292810523
 31
0.0
  0
LINE
  5
D4
330
1F
100
AcDbEntity
  8
0
  6
Continuous
 62
     7
370
    18
100
AcDbLine
 10
2121.8704816337
 20
181.3583509723
 30
0.0
 11
2869.6070185003
 21
181.3583509723
 31
0.0
  0
LINE
  5
D5
330
1F
100
AcDbEntity
  8
0
  6
Continuous
 62
     7
370
    18
100
AcDbLine
 10
2648.7467156628
 20
135.4292810523
 30
0.0
 11
2869.6070185003
 21
135.4292810523
 31
0.0
  0
LINE
  5
D6
330
1F
100
AcDbEntity
  8
0
  6
Continuous
 62
     7
370
    18
100
AcDbLine
 10
2121.8704816337
 20
368.7467824209
 30
0.0
 11
2869.7006917056
 21
368.7467824209
 31
0.0
  0
LINE
  5
D7
330
1F
100
AcDbEntity
  8
0
  6
Continuous
 62
     7
370
    18
100
AcDbLine
 10
2648.7467156628
 20
70.0
 30
0.0
 11
2648.7467156628
 21
368.7467824209
 31
0.0
  0
INSERT
  5
D8
330
1F
100
AcDbEntity
  8
FORMAT
100
AcDbBlockReference
  2
rechtlicher_Hinweis_Katalogzeichnungen_1
 10
86.2294908427
 20
31.5549972483
 30
0.0
 41
0.5
 42
0.5
 43
0.5
  0
INSERT
  5
D9
330
1F
100
AcDbEntity
  8
0
  6
Continuous
 62
     7
100
AcDbBlockReference
  2
Block2_3_1
 10
509.1807851128
 20
-261.5944962483
 30
0.0
  0
INSERT
  5
DA
330
1F
100
AcDbEntity
  8
0
  6
Continuous
 62
     7
100
AcDbBlockReference
  2
Block1_3_1
 10
2700.6135347481
 20
189.6696797211
 30
0.0
  0
INSERT
  5
E1
330
1F
100
AcDbEntity
  8
FORMAT
100
AcDbBlockReference
  2
SW_NOTE_0_4
 10
91.8449736208
 20
376.9408667979
 30
0.0
  0
MTEXT
  5
E2
330
1F
100
AcDbEntity
  8
0
  6
Continuous
 62
     7
370
     0
100
AcDbMText
 10
2655.2495495755
 20
165.0094332157
 30
0.0
 40
14.0
 41
0.0
 71
     1
 72
     1
  1
Maßstab:
  7
SLDTEXTSTYLE0
 73
     1
 44
1.0
  0
MTEXT
  5
E3
330
1F
100
AcDbEntity
  8
0
  6
Continuous
 62
     7
370
     0
100
AcDbMText
 10
2785.9502817651
 20
125.2286542559
 30
0.0
 40
14.0
 41
0.0
 71
     1
 72
     1
  1
Format
  7
SLDTEXTSTYLE0
 73
     1
 44
1.0
  0
MTEXT
  5
E4
330
1F
100
AcDbEntity
  8
0
  6
Continuous
 62
     7
370
     0
100
AcDbMText
 10
2135.8123898948
 20
356.9818853041
 30
0.0
 40
14.0
 41
0.0
 71
     1
 72
     1
  1
Benennung:
  7
SLDTEXTSTYLE0
 73
     1
 44
1.0
  0
MTEXT
  5
E5
330
1F
100
AcDbEntity
  8
0
  6
Continuous
 62
     7
370
     0
100
AcDbMText
 10
2664.5005395913
 20
125.2286542559
 30
0.0
 40
14.0
 41
0.0
 71
     1
 72
     1
  1
Blatt / von
  7
SLDTEXTSTYLE0
 73
     1
 44
1.0
  0
MTEXT
  5
E6
330
1F
100
AcDbEntity
  8
0
  6
Continuous
 62
     7
370
     0
100
AcDbMText
 10
2706.4725907482
 20
100.6974422258
 30
0.0
 40
17.5
 41
0.0
 71
     2
 72
     1
  1
/
  7
SLDTEXTSTYLE0
 73
     1
 44
1.0
  0
MTEXT
  5
E8
330
1F
100
AcDbEntity
  8
0
  6
Continuous
 62
     7
370
     0
100
AcDbMText
 10
2134.2541581219
 20
214.7882486886
 30
0.0
 40
22.225
 41
0.0
 71
     1
 72
     1
  1
D052-49473
  7
SLDTEXTSTYLE3
 73
     1
 44
1.0
  0
MTEXT
  5
E9
330
1F
100
AcDbEntity
  8
0
  6
Continuous
 62
     7
370
     0
100
AcDbMText
 10
2752.495267605
 20
165.9085614452
 30
0.0
 40
14.8166666667
 41
0.0
 71
     1
 72
     1
  1
1:7
  7
SLDTEXTSTYLE0
 73
     1
 44
1.0
  0
MTEXT
  5
EA
330
1F
100
AcDbEntity
  8
0
  6
Continuous
 62
     7
370
     0
100
AcDbMText
 10
2803.7489693293
 20
99.2074950551
 30
0.0
 40
14.8166666667
 41
0.0
 71
     1
 72
     1
  1
A3
  7
SLDTEXTSTYLE0
 73
     1
 44
1.0
  0
MTEXT
  5
EB
330
1F
100
AcDbEntity
  8
0
  6
Continuous
 62
     7
370
     0
100
AcDbMText
 10
2680.0334055091
 20
99.9642475618
 30
0.0
 40
14.8166666667
 41
0.0
 71
     1
 72
     1
  1
1
  7
SLDTEXTSTYLE0
 73
     1
 44
1.0
  0
MTEXT
  5
EC
330
1F
100
AcDbEntity
  8
0
  6
Continuous
 62
     7
370
     0
100
AcDbMText
 10
2722.5410575592
 20
99.9642475618
 30
0.0
 40
14.8166666667
 41
0.0
 71
     1
 72
     1
  1
1
  7
SLDTEXTSTYLE0
 73
     1
 44
1.0
  0
MTEXT
  5
ED
330
1F
100
AcDbEntity
  8
FORMAT
100
AcDbMText
 10
2137.971220638
 20
240.9301481691
 30
0.0
 40
14.0
 41
0.0
 71
     1
 72
     1
  1
Zeichnungsnummer:
  7
SLDTEXTSTYLE0
 73
     1
 44
1.0
  0
MTEXT
  5
EE
330
1F
100
AcDbEntity
  8
FORMAT
100
AcDbMText
 10
2666.6233339517
 20
361.2067203863
 30
0.0
 40
12.6
 41
0.0
 71
     1
 72
     1
  1
KATALOGZEICHNUNG
  7
SLDTEXTSTYLE3
 73
     1
 44
1.0
  0
MTEXT
  5
EF
330
1F
100
AcDbEntity
  8
FORMAT
100
AcDbMText
 10
2573.4610565193
 20
241.0417881835
 30
0.0
 40
14.0
 41
0.0
 71
     1
 72
     1
  1
Index:
  7
SLDTEXTSTYLE0
 73
     1
 44
1.0
  0
MTEXT
  5
F0
330
1F
100
AcDbEntity
  8
BEMASSUNG
 62
     7
100
AcDbMText
 10
2654.3752871088
 20
335.5547520888
 30
0.0
 40
14.0
 41
0.0
 71
     1
 72
     1
  1
Ausführung:
  7
SLDTEXTSTYLE0
 73
     1
 44
1.0
  0
MTEXT
  5
F1
330
1F
100
AcDbEntity
  8
FORMAT
100
AcDbMText
 10
2134.4508235056
 20
277.1473496808
 30
0.0
 40
17.5
 41
0.0
 71
     1
 72
     1
  1
Bandgegenseite DIN Rechts
  7
SLDTEXTSTYLE3
 73
     1
 44
1.0
  0
MTEXT
  5
F2
330
1F
100
AcDbEntity
  8
FORMAT
100
AcDbMText
 10
2134.4508235056
 20
333.2914097385
 30
0.0
 40
24.5
 41
0.0
 71
     1
 72
     1
  1
ETS 73 (GSD - GB 18 - AV 20)
  7
SLDTEXTSTYLE3
 73
     1
 44
1.0
  0
INSERT
  5
10D
330
1F
100
AcDbEntity
  8
FORMAT
100
AcDbBlockReference
  2
SW_TABLEANNOTATION_0
 10
1690.5381307693
 20
1470.6041492455
 30
0.0
  0
LINE
  5
10E
330
1F
100
AcDbEntity
  8
0
  6
Continuous
 62
     7
370
    25
100
AcDbLine
 10
798.6609846204
 20
1624.2513032582
 30
0.0
 11
798.6609846204
 21
1634.0073192271
 31
0.0
  0
LINE
  5
10F
330
1F
100
AcDbEntity
  8
0
  6
Continuous
 62
     7
370
    25
100
AcDbLine
 10
768.6609846204
 20
1634.0073192271
 30
0.0
 11
768.6609846204
 21
1624.2513032582
 31
0.0
  0
LINE
  5
110
330
1F
100
AcDbEntity
  8
0
  6
Continuous
 62
     7
370
    25
100
AcDbLine
 10
1173.9196377655
 20
1601.0073192272
 30
0.0
 11
1173.9196377655
 21
1599.0073192314
 31
0.0
  0
LINE
  5
111
330
1F
100
AcDbEntity
  8
0
  6
Continuous
 62
     7
370
    25
100
AcDbLine
 10
1187.9196377655
 20
1599.0073192314
 30
0.0
 11
1187.9196377655
 21
1601.0073192272
 31
0.0
  0
LINE
  5
112
330
1F
100
AcDbEntity
  8
0
  6
Continuous
 62
     7
370
    25
100
AcDbLine
 10
1185.9196377655
 20
1601.0073192272
 30
0.0
 11
1185.9196377655
 21
1601.5073192272
 31
0.0
  0
LINE
  5
113
330
1F
100
AcDbEntity
  8
0
  6
Continuous
 62
     7
370
    25
100
AcDbLine
 10
1175.9196377655
 20
1601.5073192272
 30
0.0
 11
1175.9196377655
 21
1601.0073192272
 31
0.0
  0
ARC
  5
114
330
1F
100
AcDbEntity
  8
0
  6
Continuous
 62
     7
370
    25
100
AcDbCircle
 10
801.6609846204
 20
1611.5073192273
 30
0.0
 40
3.0
100
AcDbArc
 50
179.9999999998
 51
270.0
  0
LINE
  5
115
330
1F
100
AcDbEntity
  8
0
  6
Continuous
 62
     7
370
    25
100
AcDbLine
 10
768.6609846205
 20
1622.3073192273
 30
0.0
 11
768.6609846205
 21
1602.5073192273
 31
0.0
  0
LINE
  5
116
330
1F
100
AcDbEntity
  8
0
  6
Continuous
 62
     7
370
    25
100
AcDbLine
 10
798.6609846204
 20
1611.5073192273
 30
0.0
 11
798.6609846204
 21
1622.3073192273
 31
0.0
  0
LINE
  5
117
330
1F
100
AcDbEntity
  8
0
  6
Continuous
 62
     7
370
    25
100
AcDbLine
 10
768.6609846205
 20
1602.5073192273
 30
0.0
 11
769.6609846205
 21
1601.5073192273
 31
0.0
  0
LINE
  5
118
330
1F
100
AcDbEntity
  8
0
  6
Continuous
 62
     7
370
    25
100
AcDbLine
 10
798.6609846204
 20
1622.3073192273
 30
0.0
 11
798.4609846204
 21
1622.5073192273
 31
0.0
  0
LINE
  5
119
330
1F
100
AcDbEntity
  8
0
  6
Continuous
 62
     7
370
    25
100
AcDbLine
 10
768.8609846205
 20
1622.5073192273
 30
0.0
 11
768.6609846205
 21
1622.3073192273
 31
0.0
  0
LWPOLYLINE
  5
11A
330
1F
100
AcDbEntity
  8
0
  6
Continuous
 62
     7
370
    25
100
AcDbPolyline
 90
       12
 70
   128
 43
0.0
 10
775.0752750767
 20
1623.3153002863
 10
774.9652994412
 20
1623.016253628
 10
774.7806770929
 20
1622.7800410679
 10
774.669712695
 20
1622.6896877916
 10
774.5558694493
 20
1622.6202931321
 10
774.4495496309
 20
1622.5714445836
 10
774.3609576657
 20
1622.5400080376
 10
774.2998166914
 20
1622.5217215519
 10
774.2753939299
 20
1622.5123835721
 10
774.2962242348
 20
1622.508482286
 10
774.3691075966
 20
1622.507393235
 10
774.4546849223
 20
1622.5073437529
  0
LINE
  5
11B
330
1F
100
AcDbEntity
  8
0
  6
Continuous
 62
     7
370
    25
100
AcDbLine
 10
775.2582658994
 20
1624.2513032582
 30
0.0
 11
775.0621421333
 21
1623.2481271815
 31
0.0
  0
LWPOLYLINE
  5
11C
330
1F
100
AcDbEntity
  8
0
  6
Continuous
 62
     7
370
    25
100
AcDbPolyline
 90
        4
 70
   128
 43
0.0
 10
793.8912785212
 20
1622.5073419629
 10
793.9308870962
 20
1622.507364648
 10
793.956516593
 20
1622.5084159719
 10
793.9557880473
 20
1622.5085748365
  0
ARC
  5
11D
330
1F
100
AcDbEntity
  8
0
  6
Continuous
 62
     7
370
    25
100
AcDbCircle
 10
794.0822997588
 20
1623.5184986861
 30
0.0
 40
1.016334646529475
100
AcDbArc
 50
192.6141786486
 51
261.8326251793
  0
LINE
  5
11E
330
1F
100
AcDbEntity
  8
0
  6
Continuous
 62
     7
370
    25
100
AcDbLine
 10
793.0904973629
 20
1623.2965448022
 30
0.0
 11
792.8847094962
 21
1624.2513032582
 31
0.0
  0
LINE
  5
11F
330
1F
100
AcDbEntity
  8
0
  6
Continuous
 62
     7
370
    25
100
AcDbLine
 10
774.4372597447
 20
1624.2513032582
 30
0.0
 11
774.2212183372
 21
1623.248973218
 31
0.0
  0
ARC
  5
120
330
1F
100
AcDbEntity
  8
0
  6
Continuous
 62
     7
370
    25
100
AcDbCircle
 10
773.2654852992
 20
1623.4930791083
 30
0.0
 40
0.9857770834055184
100
AcDbArc
 50
269.544088549
 51
348.4999965654
  0
LINE
  5
121
330
1F
100
AcDbEntity
  8
0
  6
Continuous
 62
     7
370
    25
100
AcDbLine
 10
1191.9196377655
 20
1607.5073192271
 30
0.0
 11
1190.9196377655
 21
1608.5073192271
 31
0.0
  0
LINE
  5
122
330
1F
100
AcDbEntity
  8
0
  6
Continuous
 62
     7
370
    25
100
AcDbLine
 10
1190.9196377655
 20
1601.5073192272
 30
0.0
 11
1191.9196377655
 21
1602.5073192271
 31
0.0
  0
LINE
  5
123
330
1F
100
AcDbEntity
  8
0
  6
Continuous
 62
     7
370
    25
100
AcDbLine
 10
1191.9196377655
 20
1602.5073192271
 30
0.0
 11
1191.9196377655
 21
1607.5073192271
 31
0.0
  0
LINE
  5
124
330
1F
100
AcDbEntity
  8
0
  6
Continuous
 62
     7
370
    25
100
AcDbLine
 10
768.6609846204
 20
1624.2513032582
 30
0.0
 11
798.6609846204
 21
1624.2513032582
 31
0.0
  0
LINE
  5
125
330
1F
100
AcDbEntity
  8
0
  6
Continuous
 62
     7
370
    25
100
AcDbLine
 10
760.6609846204
 20
1730.0073192271
 30
0.0
 11
760.6609846204
 21
1729.0073192271
 31
0.0
  0
LINE
  5
126
330
1F
100
AcDbEntity
  8
0
  6
Continuous
 62
     7
370
    25
100
AcDbLine
 10
806.6609846204
 20
1730.0073192271
 30
0.0
 11
806.6609846204
 21
1729.0073192271
 31
0.0
  0
LINE
  5
127
330
1F
100
AcDbEntity
  8
0
  6
Continuous
 62
     7
370
    25
100
AcDbLine
 10
760.6609846204
 20
1730.0073192271
 30
0.0
 11
806.6609846204
 21
1730.0073192271
 31
0.0
  0
LINE
  5
128
330
1F
100
AcDbEntity
  8
0
  6
Continuous
 62
     7
370
    25
100
AcDbLine
 10
806.6609846204
 20
1633.0073192271
 30
0.0
 11
803.4347045537
 21
1633.0073192271
 31
0.0
  0
LINE
  5
129
330
1F
100
AcDbEntity
  8
0
  6
Continuous
 62
     7
370
    25
100
AcDbLine
 10
803.4347045537
 20
1634.0073192271
 30
0.0
 11
803.4347045537
 21
1633.0073192271
 31
0.0
  0
LINE
  5
12A
330
1F
100
AcDbEntity
  8
0
  6
Continuous
 62
     7
370
    25
100
AcDbLine
 10
806.6609846204
 20
1633.0073192271
 30
0.0
 11
806.6609846204
 21
1634.0073192271
 31
0.0
  0
LINE
  5
12B
330
1F
100
AcDbEntity
  8
0
  6
Continuous
 62
     7
370
    25
100
AcDbLine
 10
760.6609846204
 20
1634.0073192271
 30
0.0
 11
760.6609846204
 21
1633.0073192271
 31
0.0
  0
LINE
  5
12C
330
1F
100
AcDbEntity
  8
0
  6
Continuous
 62
     7
370
    25
100
AcDbLine
 10
763.8872646871
 20
1633.0073192271
 30
0.0
 11
763.8872646871
 21
1634.0073192271
 31
0.0
  0
LINE
  5
12D
330
1F
100
AcDbEntity
  8
0
  6
Continuous
 62
     7
370
    25
100
AcDbLine
 10
763.8872646871
 20
1633.0073192271
 30
0.0
 11
760.6609846204
 21
1633.0073192271
 31
0.0
  0
LINE
  5
12E
330
1F
100
AcDbEntity
  8
0
  6
Continuous
 62
     7
370
    25
100
AcDbLine
 10
803.4347045537
 20
1633.0073192271
 30
0.0
 11
798.6609846204
 21
1633.0073192271
 31
0.0
  0
LINE
  5
12F
330
1F
100
AcDbEntity
  8
0
  6
Continuous
 62
     7
370
    25
100
AcDbLine
 10
768.6609846204
 20
1633.0073192271
 30
0.0
 11
763.8872646871
 21
1633.0073192271
 31
0.0
  0
LINE
  5
130
330
1F
100
AcDbEntity
  8
0
  6
Continuous
 62
     7
370
    25
100
AcDbLine
 10
513.6609846204
 20
1729.0073192271
 30
0.0
 11
511.6609846204
 21
1729.0073192271
 31
0.0
  0
LINE
  5
131
330
1F
100
AcDbEntity
  8
0
  6
Continuous
 62
     7
370
    25
100
AcDbLine
 10
513.6609846204
 20
1729.0073192271
 30
0.0
 11
513.6609846204
 21
1724.0073192271
 31
0.0
  0
LINE
  5
132
330
1F
100
AcDbEntity
  8
0
  6
Continuous
 62
     7
370
    25
100
AcDbLine
 10
513.6609846204
 20
1724.0073192271
 30
0.0
 11
511.6609846204
 21
1724.0073192271
 31
0.0
  0
LINE
  5
133
330
1F
100
AcDbEntity
  8
0
  6
Continuous
 62
     7
370
    25
100
AcDbLine
 10
511.6609846204
 20
1729.0073192271
 30
0.0
 11
511.6609846204
 21
1724.0073192271
 31
0.0
  0
LINE
  5
134
330
1F
100
AcDbEntity
  8
0
  6
Continuous
 62
     7
370
    25
100
AcDbLine
 10
513.6609846204
 20
1724.0073192271
 30
0.0
 11
513.6609846204
 21
1639.0073192271
 31
0.0
  0
LINE
  5
135
330
1F
100
AcDbEntity
  8
0
  6
Continuous
 62
     7
370
    25
100
AcDbLine
 10
513.6609846204
 20
1639.0073192271
 30
0.0
 11
511.6609846204
 21
1639.0073192271
 31
0.0
  0
LINE
  5
136
330
1F
100
AcDbEntity
  8
0
  6
Continuous
 62
     7
370
    25
100
AcDbLine
 10
511.6609846204
 20
1724.0073192271
 30
0.0
 11
511.6609846204
 21
1639.0073192271
 31
0.0
  0
LINE
  5
137
330
1F
100
AcDbEntity
  8
0
  6
Continuous
 62
     7
370
    25
100
AcDbLine
 10
513.6609846204
 20
1634.0073192271
 30
0.0
 11
511.6609846204
 21
1634.0073192271
 31
0.0
  0
LINE
  5
138
330
1F
100
AcDbEntity
  8
0
  6
Continuous
 62
     7
370
    25
100
AcDbLine
 10
513.6609846204
 20
1639.0073192271
 30
0.0
 11
513.6609846204
 21
1634.0073192271
 31
0.0
  0
LINE
  5
139
330
1F
100
AcDbEntity
  8
0
  6
Continuous
 62
     7
370
    25
100
AcDbLine
 10
511.6609846204
 20
1639.0073192271
 30
0.0
 11
511.6609846204
 21
1634.0073192271
 31
0.0
  0
LINE
  5
13A
330
1F
100
AcDbEntity
  8
0
  6
Continuous
 62
     7
370
    25
100
AcDbLine
 10
511.6609846204
 20
1724.0073192271
 30
0.0
 11
507.1609846204
 21
1724.0073192271
 31
0.0
  0
LINE
  5
13B
330
1F
100
AcDbEntity
  8
0
  6
Continuous
 62
     7
370
    25
100
AcDbLine
 10
507.1609846204
 20
1724.0073192365
 30
0.0
 11
507.1609846204
 21
1727.0073192271
 31
0.0
  0
LINE
  5
13C
330
1F
100
AcDbEntity
  8
0
  6
Continuous
 62
     7
370
    25
100
AcDbLine
 10
507.1609846204
 20
1727.0073192271
 30
0.0
 11
511.6609846204
 21
1727.0073192271
 31
0.0
  0
LINE
  5
13D
330
1F
100
AcDbEntity
  8
0
  6
Continuous
 62
     7
370
    25
100
AcDbLine
 10
507.1609846204
 20
1639.0073192271
 30
0.0
 11
507.1609846204
 21
1724.0073192318
 31
0.0
  0
LINE
  5
13E
330
1F
100
AcDbEntity
  8
0
  6
Continuous
 62
     7
370
    25
100
AcDbLine
 10
504.1609846204
 20
1639.0073192271
 30
0.0
 11
507.1609846204
 21
1639.0073192271
 31
0.0
  0
LINE
  5
13F
330
1F
100
AcDbEntity
  8
0
  6
Continuous
 62
     7
370
    25
100
AcDbLine
 10
504.1609846204
 20
1639.0073192271
 30
0.0
 11
504.1609846204
 21
1724.0073192271
 31
0.0
  0
LINE
  5
140
330
1F
100
AcDbEntity
  8
0
  6
Continuous
 62
     7
370
    25
100
AcDbLine
 10
507.1609846204
 20
1724.0073192271
 30
0.0
 11
504.1609846204
 21
1724.0073192271
 31
0.0
  0
LINE
  5
141
330
1F
100
AcDbEntity
  8
0
  6
Continuous
 62
     7
370
    25
100
AcDbLine
 10
507.1609846204
 20
1639.0073192271
 30
0.0
 11
511.6609846204
 21
1639.0073192271
 31
0.0
  0
LINE
  5
142
330
1F
100
AcDbEntity
  8
0
  6
Continuous
 62
     7
370
    25
100
AcDbLine
 10
511.6609846204
 20
1636.0073192271
 30
0.0
 11
507.1609846204
 21
1636.0073192271
 31
0.0
  0
LINE
  5
143
330
1F
100
AcDbEntity
  8
0
  6
Continuous
 62
     7
370
    25
100
AcDbLine
 10
507.1609846204
 20
1636.0073192271
 30
0.0
 11
507.1609846204
 21
1639.0073192271
 31
0.0
  0
ARC
  5
144
330
1F
100
AcDbEntity
  8
0
  6
Continuous
 62
     7
370
    25
100
AcDbCircle
 10
507.1609846204
 20
1639.0073192271
 30
0.0
 40
3.000000000000227
100
AcDbArc
 50
180.0
 51
270.0
  0
ARC
  5
145
330
1F
100
AcDbEntity
  8
0
  6
Continuous
 62
     7
370
    25
100
AcDbCircle
 10
507.1609846204
 20
1724.0073192271
 30
0.0
 40
3.0
100
AcDbArc
 50
90.0
 51
180.0
  0
LINE
  5
146
330
1F
100
AcDbEntity
  8
0
  6
Continuous
 62
     7
370
    25
100
AcDbLine
 10
1185.6609846204
 20
1724.0073192271
 30
0.0
 11
1185.6609846204
 21
1729.0073192271
 31
0.0
  0
LINE
  5
147
330
1F
100
AcDbEntity
  8
0
  6
Continuous
 62
     7
370
    25
100
AcDbLine
 10
1183.6609846204
 20
1724.0073192271
 30
0.0
 11
1185.6609846204
 21
1724.0073192271
 31
0.0
  0
LINE
  5
148
330
1F
100
AcDbEntity
  8
0
  6
Continuous
 62
     7
370
    25
100
AcDbLine
 10
1183.6609846204
 20
1724.0073192271
 30
0.0
 11
1183.6609846204
 21
1729.0073192271
 31
0.0
  0
LINE
  5
149
330
1F
100
AcDbEntity
  8
0
  6
Continuous
 62
     7
370
    25
100
AcDbLine
 10
1183.6609846204
 20
1729.0073192271
 30
0.0
 11
1185.6609846204
 21
1729.0073192271
 31
0.0
  0
LINE
  5
14A
330
1F
100
AcDbEntity
  8
0
  6
Continuous
 62
     7
370
    25
100
AcDbLine
 10
1185.6609846204
 20
1639.0073192271
 30
0.0
 11
1185.6609846204
 21
1724.0073192271
 31
0.0
  0
LINE
  5
14B
330
1F
100
AcDbEntity
  8
0
  6
Continuous
 62
     7
370
    25
100
AcDbLine
 10
1183.6609846204
 20
1639.0073192271
 30
0.0
 11
1185.6609846204
 21
1639.0073192271
 31
0.0
  0
LINE
  5
14C
330
1F
100
AcDbEntity
  8
0
  6
Continuous
 62
     7
370
    25
100
AcDbLine
 10
1183.6609846204
 20
1639.0073192271
 30
0.0
 11
1183.6609846204
 21
1724.0073192271
 31
0.0
  0
LINE
  5
14D
330
1F
100
AcDbEntity
  8
0
  6
Continuous
 62
     7
370
    25
100
AcDbLine
 10
1183.6609846204
 20
1634.0073192271
 30
0.0
 11
1185.6609846204
 21
1634.0073192271
 31
0.0
  0
LINE
  5
14E
330
1F
100
AcDbEntity
  8
0
  6
Continuous
 62
     7
370
    25
100
AcDbLine
 10
1183.6609846204
 20
1634.0073192271
 30
0.0
 11
1183.6609846204
 21
1639.0073192271
 31
0.0
  0
LINE
  5
14F
330
1F
100
AcDbEntity
  8
0
  6
Continuous
 62
     7
370
    25
100
AcDbLine
 10
1185.6609846204
 20
1634.0073192271
 30
0.0
 11
1185.6609846204
 21
1639.0073192271
 31
0.0
  0
LINE
  5
150
330
1F
100
AcDbEntity
  8
0
  6
Continuous
 62
     7
370
    25
100
AcDbLine
 10
1190.1609846204
 20
1724.0073192271
 30
0.0
 11
1190.1609846204
 21
1639.0073192224
 31
0.0
  0
LINE
  5
151
330
1F
100
AcDbEntity
  8
0
  6
Continuous
 62
     7
370
    25
100
AcDbLine
 10
1193.1609846204
 20
1724.0073192271
 30
0.0
 11
1190.1609846204
 21
1724.0073192271
 31
0.0
  0
LINE
  5
152
330
1F
100
AcDbEntity
  8
0
  6
Continuous
 62
     7
370
    25
100
AcDbLine
 10
1193.1609846204
 20
1724.0073192271
 30
0.0
 11
1193.1609846204
 21
1639.0073192271
 31
0.0
  0
LINE
  5
153
330
1F
100
AcDbEntity
  8
0
  6
Continuous
 62
     7
370
    25
100
AcDbLine
 10
1190.1609846204
 20
1639.0073192271
 30
0.0
 11
1193.1609846204
 21
1639.0073192271
 31
0.0
  0
LINE
  5
154
330
1F
100
AcDbEntity
  8
0
  6
Continuous
 62
     7
370
    25
100
AcDbLine
 10
1185.6609846204
 20
1639.0073192271
 30
0.0
 11
1190.1609846204
 21
1639.0073192271
 31
0.0
  0
LINE
  5
155
330
1F
100
AcDbEntity
  8
0
  6
Continuous
 62
     7
370
    25
100
AcDbLine
 10
1190.1609846204
 20
1639.0073192177
 30
0.0
 11
1190.1609846204
 21
1636.0073192271
 31
0.0
  0
LINE
  5
156
330
1F
100
AcDbEntity
  8
0
  6
Continuous
 62
     7
370
    25
100
AcDbLine
 10
1190.1609846204
 20
1636.0073192271
 30
0.0
 11
1185.6609846204
 21
1636.0073192271
 31
0.0
  0
LINE
  5
157
330
1F
100
AcDbEntity
  8
0
  6
Continuous
 62
     7
370
    25
100
AcDbLine
 10
1190.1609846204
 20
1724.0073192271
 30
0.0
 11
1185.6609846204
 21
1724.0073192271
 31
0.0
  0
LINE
  5
158
330
1F
100
AcDbEntity
  8
0
  6
Continuous
 62
     7
370
    25
100
AcDbLine
 10
1185.6609846204
 20
1727.0073192271
 30
0.0
 11
1190.1609846204
 21
1727.0073192271
 31
0.0
  0
LINE
  5
159
330
1F
100
AcDbEntity
  8
0
  6
Continuous
 62
     7
370
    25
100
AcDbLine
 10
1190.1609846204
 20
1727.0073192271
 30
0.0
 11
1190.1609846204
 21
1724.0073192271
 31
0.0
  0
ARC
  5
15A
330
1F
100
AcDbEntity
  8
0
  6
Continuous
 62
     7
370
    25
100
AcDbCircle
 10
1190.1609846204
 20
1724.0073192271
 30
0.0
 40
3.000000000000227
100
AcDbArc
 50
0.0
 51
90.0
  0
ARC
  5
15B
330
1F
100
AcDbEntity
  8
0
  6
Continuous
 62
     7
370
    25
100
AcDbCircle
 10
1190.1609846204
 20
1639.0073192271
 30
0.0
 40
3.0
100
AcDbArc
 50
270.0
 51
0.0
  0
LINE
  5
15C
330
1F
100
AcDbEntity
  8
0
  6
Continuous
 62
     7
370
    25
100
AcDbLine
 10
513.6609846204
 20
1724.0073192271
 30
0.0
 11
1183.6609846204
 21
1724.0073192271
 31
0.0
  0
LINE
  5
15D
330
1F
100
AcDbEntity
  8
0
  6
Continuous
 62
     7
370
    25
100
AcDbLine
 10
513.6609846204
 20
1639.0073192271
 30
0.0
 11
1183.6609846204
 21
1639.0073192271
 31
0.0
  0
LINE
  5
15E
330
1F
100
AcDbEntity
  8
0
  6
Continuous
 62
     7
370
    25
100
AcDbLine
 10
513.6609846204
 20
1634.0073192271
 30
0.0
 11
1183.6609846204
 21
1634.0073192271
 31
0.0
  0
LINE
  5
15F
330
1F
100
AcDbEntity
  8
0
  6
Continuous
 62
     7
370
    25
100
AcDbLine
 10
513.6609846204
 20
1729.0073192271
 30
0.0
 11
1183.6609846204
 21
1729.0073192271
 31
0.0
  0
LINE
  5
160
330
1F
100
AcDbEntity
  8
0
  6
Continuous
 62
     7
370
    25
100
AcDbLine
 10
1187.9196377655
 20
1601.0073192272
 30
0.0
 11
1173.9196377655
 21
1601.0073192272
 31
0.0
  0
LWPOLYLINE
  5
161
330
1F
100
AcDbEntity
  8
0
  6
Continuous
 62
     7
370
    25
100
AcDbPolyline
 90
       16
 70
   128
 43
0.0
 10
796.5334061215
 20
1608.5073192273
 10
794.7274055706
 20
1608.6435770283
 10
792.8762502638
 20
1609.0029354471
 10
790.9764269998
 20
1609.5286335727
 10
789.668822313
 20
1609.9529513732
 10
788.2006672227
 20
1610.4695866816
 10
787.8628933704
 20
1610.5926115911
 10
787.5185152087
 20
1610.7192552648
 10
787.1673898702
 20
1610.8493458718
 10
786.8093475624
 20
1610.9826871484
 10
785.7796711127
 20
1611.3702207327
 10
785.5139494464
 20
1611.4703784186
 10
785.4432868726
 20
1611.4967562249
 10
785.4235118202
 20
1611.5040146776
 10
785.4175140496
 20
1611.5061611926
 10
785.4141096205
 20
1611.5073192273
  0
LINE
  5
162
330
1F
100
AcDbEntity
  8
0
  6
Continuous
 62
     7
370
    25
100
AcDbLine
 10
796.6502811215
 20
1607.5073192273
 30
0.0
 11
796.5334061215
 21
1608.5073192273
 31
0.0
  0
LWPOLYLINE
  5
163
330
1F
100
AcDbEntity
  8
0
  6
Continuous
 62
     7
370
    25
100
AcDbPolyline
 90
       16
 70
   128
 43
0.0
 10
796.6502811215
 20
1607.5073192273
 10
794.6655411415
 20
1607.6865873234
 10
792.6924107794
 20
1608.1654566167
 10
790.7440742079
 20
1608.8690792651
 10
789.9045277564
 20
1609.2297489581
 10
789.0021840025
 20
1609.647947658
 10
788.0370429462
 20
1610.1236753648
 10
786.7201995674
 20
1610.8078085047
 10
786.4814712964
 20
1610.9344850579
 10
786.2635911742
 20
1611.0508657997
 10
786.066559201
 20
1611.1569507302
 10
785.5912018664
 20
1611.4134375016
 10
785.4653726074
 20
1611.4807039951
 10
785.4304203299
 20
1611.4990930189
 10
785.4199347792
 20
1611.504476475
 10
785.4141096205
 20
1611.5073192273
  0
LINE
  5
164
330
1F
100
AcDbEntity
  8
0
  6
Continuous
 62
     7
370
    25
100
AcDbLine
 10
785.4141096205
 20
1602.5073192273
 30
0.0
 11
785.4141096205
 21
1611.5073192273
 31
0.0
  0
LINE
  5
165
330
1F
100
AcDbEntity
  8
0
  6
Continuous
 62
     7
370
    25
100
AcDbLine
 10
785.4141096205
 20
1602.5073192273
 30
0.0
 11
768.6609846205
 21
1602.5073192273
 31
0.0
  0
LINE
  5
166
330
1F
100
AcDbEntity
  8
0
  6
Continuous
 62
     7
370
    25
100
AcDbLine
 10
785.4141096205
 20
1622.3073192273
 30
0.0
 11
768.6609846205
 21
1622.3073192273
 31
0.0
  0
LINE
  5
167
330
1F
100
AcDbEntity
  8
0
  6
Continuous
 62
     7
370
    25
100
AcDbLine
 10
798.6609846204
 20
1622.3073192273
 30
0.0
 11
785.4141096205
 21
1622.3073192273
 31
0.0
  0
LINE
  5
168
330
1F
100
AcDbEntity
  8
0
  6
Continuous
 62
     7
370
    25
100
AcDbLine
 10
785.2972346205
 20
1601.5073192273
 30
0.0
 11
785.4141096205
 21
1602.5073192273
 31
0.0
  0
LINE
  5
169
330
1F
100
AcDbEntity
  8
0
  6
Continuous
 62
     7
370
    25
100
AcDbLine
 10
785.2972346205
 20
1601.5073192273
 30
0.0
 11
769.6609846205
 21
1601.5073192273
 31
0.0
  0
LINE
  5
16A
330
1F
100
AcDbEntity
  8
0
  6
Continuous
 62
     7
370
    25
100
AcDbLine
 10
785.3907346205
 20
1622.5073192273
 30
0.0
 11
768.8609846205
 21
1622.5073192273
 31
0.0
  0
LINE
  5
16B
330
1F
100
AcDbEntity
  8
0
  6
Continuous
 62
     7
370
    25
100
AcDbLine
 10
798.4609846204
 20
1622.5073192273
 30
0.0
 11
785.3907346205
 21
1622.5073192273
 31
0.0
  0
LINE
  5
16C
330
1F
100
AcDbEntity
  8
0
  6
Continuous
 62
     7
370
    25
100
AcDbLine
 10
994.4429566634
 20
1602.5073192272
 30
0.0
 11
994.4429566634
 21
1607.5073192272
 31
0.0
  0
LINE
  5
16D
330
1F
100
AcDbEntity
  8
0
  6
Continuous
 62
     7
370
    25
100
AcDbLine
 10
994.4429566634
 20
1602.5073192272
 30
0.0
 11
785.4141096205
 21
1602.5073192273
 31
0.0
  0
LINE
  5
16E
330
1F
100
AcDbEntity
  8
0
  6
Continuous
 62
     7
370
    25
100
AcDbLine
 10
994.4429566634
 20
1607.5073192272
 30
0.0
 11
796.6502811215
 21
1607.5073192273
 31
0.0
  0
LINE
  5
16F
330
1F
100
AcDbEntity
  8
0
  6
Continuous
 62
     7
370
    25
100
AcDbLine
 10
994.4429566634
 20
1602.5073192272
 30
0.0
 11
994.3260816634
 21
1601.5073192272
 31
0.0
  0
LINE
  5
170
330
1F
100
AcDbEntity
  8
0
  6
Continuous
 62
     7
370
    25
100
AcDbLine
 10
994.3260816634
 20
1601.5073192272
 30
0.0
 11
785.2972346205
 21
1601.5073192273
 31
0.0
  0
LINE
  5
171
330
1F
100
AcDbEntity
  8
0
  6
Continuous
 62
     7
370
    25
100
AcDbLine
 10
796.5334061215
 20
1608.5073192273
 30
0.0
 11
994.3260816634
 21
1608.5073192272
 31
0.0
  0
LINE
  5
172
330
1F
100
AcDbEntity
  8
0
  6
Continuous
 62
     7
370
    25
100
AcDbLine
 10
994.4429566634
 20
1607.5073192272
 30
0.0
 11
994.3260816634
 21
1608.5073192272
 31
0.0
  0
LWPOLYLINE
  5
173
330
1F
100
AcDbEntity
  8
0
  6
Continuous
 62
     7
370
    25
100
AcDbPolyline
 90
        9
 70
   128
 43
0.0
 10
781.7848341251
 20
1622.5073192273
 10
781.6990386523
 20
1622.5228926592
 10
781.6159154394
 20
1622.5691278914
 10
781.5380535139
 20
1622.6445848413
 10
781.4678780304
 20
1622.7469132617
 10
781.4075747352
 20
1622.8729259431
 10
781.3590218869
 20
1623.0186979858
 10
781.3237317544
 20
1623.1796890477
 10
781.3028035146
 20
1623.3508847622
  0
ARC
  5
174
330
1F
100
AcDbEntity
  8
0
  6
Continuous
 62
     7
370
    25
100
AcDbCircle
 10
779.848994089
 20
1623.4248760933
 30
0.0
 40
0.9191498472624107
100
AcDbArc
 50
273.3737472447
 51
355.3827081635
  0
ARC
  5
175
330
1F
100
AcDbEntity
  8
0
  6
Continuous
 62
     7
370
    25
100
AcDbCircle
 10
781.0339822277
 20
1623.8848488906
 30
0.0
 40
0.5978148330884901
100
AcDbArc
 50
243.2772849693
 51
296.7227163649
  0
LWPOLYLINE
  5
176
330
1F
100
AcDbEntity
  8
0
  6
Continuous
 62
     7
370
    25
100
AcDbPolyline
 90
        3
 70
   128
 43
0.0
 10
784.4647671797
 20
1622.7469132617
 10
784.5592420633
 20
1622.5691278914
 10
784.6745982234
 20
1622.5073192273
  0
LINE
  5
177
330
1F
100
AcDbEntity
  8
0
  6
Continuous
 62
     7
370
    25
100
AcDbLine
 10
781.3028035146
 20
1623.3508847622
 30
0.0
 11
784.406817715
 21
1623.3508847622
 31
0.0
  0
LWPOLYLINE
  5
178
330
1F
100
AcDbEntity
  8
0
  6
Continuous
 62
     7
370
    25
100
AcDbPolyline
 90
        3
 70
   128
 43
0.0
 10
784.406817715
 20
1623.3508847622
 10
784.4094735618
 20
1623.0186979858
 10
784.4647671797
 20
1622.7469132617
  0
LWPOLYLINE
  5
179
330
1F
100
AcDbEntity
  8
0
  6
Continuous
 62
     7
370
    25
100
AcDbPolyline
 90
        3
 70
   128
 43
0.0
 10
784.7331976697
 20
1622.7469132596
 10
784.7348331314
 20
1623.0186979844
 10
784.7071229818
 20
1623.3508847622
  0
LINE
  5
17A
330
1F
100
AcDbEntity
  8
0
  6
Continuous
 62
     7
370
    25
100
AcDbLine
 10
784.7071229818
 20
1623.3508847622
 30
0.0
 11
788.1292560909
 21
1623.3508847622
 31
0.0
  0
LWPOLYLINE
  5
17B
330
1F
100
AcDbEntity
  8
0
  6
Continuous
 62
     7
370
    25
100
AcDbPolyline
 90
        9
 70
   128
 43
0.0
 10
788.1292560909
 20
1623.3508847622
 10
788.1175885759
 20
1623.1796890477
 10
788.0979142911
 20
1623.0186979858
 10
788.0708460286
 20
1622.8729259431
 10
788.0372268801
 20
1622.7469132617
 10
787.9981039765
 20
1622.6445848413
 10
787.9546958736
 20
1622.5691278914
 10
787.9083545977
 20
1622.5228926592
 10
787.8605235341
 20
1622.5073192273
  0
LWPOLYLINE
  5
17C
330
1F
100
AcDbEntity
  8
0
  6
Continuous
 62
     7
370
    25
100
AcDbPolyline
 90
        3
 70
   128
 43
0.0
 10
784.6745982234
 20
1622.5073192273
 10
784.709718613
 20
1622.5691278908
 10
784.7331976697
 20
1622.7469132596
  0
LWPOLYLINE
  5
17D
330
1F
100
AcDbEntity
  8
0
  6
Continuous
 62
     7
370
    25
100
AcDbPolyline
 90
        3
 70
   128
 43
0.0
 10
778.7942237414
 20
1622.7469132596
 10
778.9589553035
 20
1623.0186979844
 10
779.0295481324
 20
1623.3508847622
  0
LINE
  5
17E
330
1F
100
AcDbEntity
  8
0
  6
Continuous
 62
     7
370
    25
100
AcDbLine
 10
779.0295481324
 20
1623.3508847622
 30
0.0
 11
780.7651609541
 21
1623.3508847622
 31
0.0
  0
LWPOLYLINE
  5
17F
330
1F
100
AcDbEntity
  8
0
  6
Continuous
 62
     7
370
    25
100
AcDbPolyline
 90
        3
 70
   128
 43
0.0
 10
778.2872704653
 20
1622.5073192273
 10
778.5594194069
 20
1622.5691278908
 10
778.7942237414
 20
1622.7469132596
  0
ARC
  5
180
330
1F
100
AcDbEntity
  8
0
  6
Continuous
 62
     7
370
    25
100
AcDbCircle
 10
789.5825956449
 20
1623.4816952923
 30
0.0
 40
0.9744953823068333
100
AcDbArc
 50
187.7143350978
 51
269.1033892401
  0
ARC
  5
181
330
1F
100
AcDbEntity
  8
0
  6
Continuous
 62
     7
370
    25
100
AcDbCircle
 10
788.3730879354
 20
1623.7652571555
 30
0.0
 40
0.4807894070815585
100
AcDbArc
 50
239.5258911221
 51
300.474110349
  0
LWPOLYLINE
  5
182
330
1F
100
AcDbEntity
  8
0
  6
Continuous
 62
     7
370
    25
100
AcDbPolyline
 90
        3
 70
   128
 43
0.0
 10
789.8766117271
 20
1622.7469132617
 10
790.1518023447
 20
1622.5691278914
 10
790.4681648799
 20
1622.5073192273
  0
LINE
  5
183
330
1F
100
AcDbEntity
  8
0
  6
Continuous
 62
     7
370
    25
100
AcDbLine
 10
788.6169197907
 20
1623.3508847622
 30
0.0
 11
789.5845256981
 21
1623.3508847622
 31
0.0
  0
LWPOLYLINE
  5
184
330
1F
100
AcDbEntity
  8
0
  6
Continuous
 62
     7
370
    25
100
AcDbPolyline
 90
        3
 70
   128
 43
0.0
 10
789.5845256981
 20
1623.3508847622
 10
789.6786753821
 20
1623.0186979858
 10
789.8766117271
 20
1622.7469132617
  0
ARC
  5
185
330
1F
100
AcDbEntity
  8
0
  6
Continuous
 62
     7
370
    25
100
AcDbCircle
 10
783.1662694971
 20
1623.7988202144
 30
0.0
 40
1.671108754428881
100
AcDbArc
 50
320.9892283154
 51
327.6243106453
  0
ARC
  5
186
330
1F
100
AcDbEntity
  8
0
  6
Continuous
 62
     7
370
    25
100
AcDbCircle
 10
785.4360138855
 20
1623.5986264882
 30
0.0
 40
1.104249091893557
100
AcDbArc
 50
218.9803668012
 51
230.4712529788
  0
LINE
  5
187
330
1F
100
AcDbEntity
  8
0
  6
Continuous
 62
     7
370
    25
100
AcDbLine
 10
784.5537353499
 20
1623.3383502213
 30
0.0
 11
784.406817715
 21
1623.3508847622
 31
0.0
  0
ARC
  5
188
330
1F
100
AcDbEntity
  8
0
  6
Continuous
 62
     7
370
    25
100
AcDbCircle
 10
790.910765028
 20
1623.4699785029
 30
0.0
 40
6.358392235804847
100
AcDbArc
 50
181.1861930225
 51
185.1068718155
  0
LINE
  5
189
330
1F
100
AcDbEntity
  8
0
  6
Continuous
 62
     7
370
    25
100
AcDbLine
 10
784.7071229818
 20
1623.3508847622
 30
0.0
 11
784.5537353499
 21
1623.3383502213
 31
0.0
  0
LWPOLYLINE
  5
18A
330
1F
100
AcDbEntity
  8
0
  6
Continuous
 62
     7
370
    25
100
AcDbPolyline
 90
        3
 70
   128
 43
0.0
 10
778.5820777104
 20
1622.7469132617
 10
778.4404947543
 20
1622.5691278914
 10
778.2872704653
 20
1622.5073192273
  0
LWPOLYLINE
  5
18B
330
1F
100
AcDbEntity
  8
0
  6
Continuous
 62
     7
370
    25
100
AcDbPolyline
 90
        9
 70
   128
 43
0.0
 10
775.101345191
 20
1622.5073192273
 10
775.1491762545
 20
1622.5228926592
 10
775.1955175304
 20
1622.5691278914
 10
775.2389256333
 20
1622.6445848413
 10
775.2780485369
 20
1622.7469132617
 10
775.3116676855
 20
1622.8729259431
 10
775.3387359479
 20
1623.0186979858
 10
775.3584102328
 20
1623.1796890477
 10
775.3700777478
 20
1623.3508847623
  0
LINE
  5
18C
330
1F
100
AcDbEntity
  8
0
  6
Continuous
 62
     7
370
    25
100
AcDbLine
 10
775.3700777478
 20
1623.3508847623
 30
0.0
 11
778.7922108204
 21
1623.3508847622
 31
0.0
  0
LWPOLYLINE
  5
18D
330
1F
100
AcDbEntity
  8
0
  6
Continuous
 62
     7
370
    25
100
AcDbPolyline
 90
        3
 70
   128
 43
0.0
 10
778.7922108204
 20
1623.3508847622
 10
778.7018170709
 20
1623.0186979858
 10
778.5820777104
 20
1622.7469132617
  0
ARC
  5
18E
330
1F
100
AcDbEntity
  8
0
  6
Continuous
 62
     7
370
    25
100
AcDbCircle
 10
778.1040012816
 20
1623.6462580031
 30
0.0
 40
1.018517567660868
100
AcDbArc
 50
297.9943549485
 51
313.2167180076
  0
ARC
  5
18F
330
1F
100
AcDbEntity
  8
0
  6
Continuous
 62
     7
370
    25
100
AcDbCircle
 10
778.3356330879
 20
1622.8466903922
 30
0.0
 40
0.4693195752937958
100
AcDbArc
 50
347.7252635686
 51
7.0132914396
  0
ARC
  5
190
330
1F
100
AcDbEntity
  8
0
  6
Continuous
 62
     7
370
    25
100
AcDbCircle
 10
777.5839174576
 20
1623.4950660696
 30
0.0
 40
1.353414193738451
100
AcDbArc
 50
334.104790299
 51
353.3506380247
  0
LINE
  5
191
330
1F
100
AcDbEntity
  8
0
  6
Continuous
 62
     7
370
    25
100
AcDbLine
 10
779.0295481324
 20
1623.3508847622
 30
0.0
 11
778.9282279484
 21
1623.3383502213
 31
0.0
  0
LINE
  5
192
330
1F
100
AcDbEntity
  8
0
  6
Continuous
 62
     7
370
    25
100
AcDbLine
 10
778.9282279484
 20
1623.3383502213
 30
0.0
 11
778.7922108204
 21
1623.3508847622
 31
0.0
  0
LINE
  5
193
330
1F
100
AcDbEntity
  8
0
  6
Continuous
 62
     7
370
    25
100
AcDbLine
 10
774.2876537736
 20
1622.5180635685
 30
0.0
 11
774.1469732631
 21
1622.5073192273
 31
0.0
  0
LWPOLYLINE
  5
194
330
1F
100
AcDbEntity
  8
0
  6
Continuous
 62
     7
370
    25
100
AcDbPolyline
 90
        8
 70
   128
 43
0.0
 10
775.0974000458
 20
1623.350884756
 10
775.075467756
 20
1623.306014088
 10
775.0891510916
 20
1623.2931553045
 10
775.1203433206
 20
1623.2888331303
 10
775.1674288738
 20
1623.2932298467
 10
775.2232103195
 20
1623.3049911154
 10
775.2911736846
 20
1623.3241986211
 10
775.3700777478
 20
1623.3508847623
  0
LWPOLYLINE
  5
195
330
1F
100
AcDbEntity
  8
0
  6
Continuous
 62
     7
370
    25
100
AcDbPolyline
 90
        3
 70
   128
 43
0.0
 10
790.0440837355
 20
1622.7469132596
 10
789.8816650656
 20
1623.0186979844
 10
789.7718841672
 20
1623.3508847622
  0
LINE
  5
196
330
1F
100
AcDbEntity
  8
0
  6
Continuous
 62
     7
370
    25
100
AcDbLine
 10
789.7718841672
 20
1623.3508847622
 30
0.0
 11
792.8758984008
 21
1623.3508847622
 31
0.0
  0
LWPOLYLINE
  5
197
330
1F
100
AcDbEntity
  8
0
  6
Continuous
 62
     7
370
    25
100
AcDbPolyline
 90
        9
 70
   128
 43
0.0
 10
792.8758984008
 20
1623.3508847622
 10
792.8968266406
 20
1623.1796890477
 10
792.9321167731
 20
1623.0186979858
 10
792.9806696214
 20
1622.8729259431
 10
793.0409729166
 20
1622.7469132617
 10
793.1111484
 20
1622.6445848413
 10
793.1890103256
 20
1622.5691278914
 10
793.2721335385
 20
1622.5228926592
 10
793.3579290113
 20
1622.5073192273
  0
LWPOLYLINE
  5
198
330
1F
100
AcDbEntity
  8
0
  6
Continuous
 62
     7
370
    25
100
AcDbPolyline
 90
        3
 70
   128
 43
0.0
 10
790.4681648799
 20
1622.5073192273
 10
790.2456836696
 20
1622.5691278908
 10
790.0440837355
 20
1622.7469132596
  0
ARC
  5
199
330
1F
100
AcDbEntity
  8
0
  6
Continuous
 62
     7
370
    25
100
AcDbCircle
 10
790.1695335479
 20
1622.9482949181
 30
0.0
 40
0.3554683736905416
100
AcDbArc
 50
187.1591901882
 51
214.5082446727
  0
ARC
  5
19A
330
1F
100
AcDbEntity
  8
0
  6
Continuous
 62
     7
370
    25
100
AcDbCircle
 10
790.4585504693
 20
1623.5894364489
 30
0.0
 40
0.9389504767738356
100
AcDbArc
 50
226.8871512524
 51
243.8058075805
  0
LINE
  5
19B
330
1F
100
AcDbEntity
  8
0
  6
Continuous
 62
     7
370
    25
100
AcDbLine
 10
789.6562814819
 20
1623.3383502213
 30
0.0
 11
789.5845256981
 21
1623.3508847622
 31
0.0
  0
ARC
  5
19C
330
1F
100
AcDbEntity
  8
0
  6
Continuous
 62
     7
370
    25
100
AcDbCircle
 10
790.7896772958
 20
1623.5104452279
 30
0.0
 40
1.146386562270465
100
AcDbArc
 50
188.6338504036
 51
211.9386567671
  0
LINE
  5
19D
330
1F
100
AcDbEntity
  8
0
  6
Continuous
 62
     7
370
    25
100
AcDbLine
 10
789.7718841672
 20
1623.3508847622
 30
0.0
 11
789.6562814819
 21
1623.3383502213
 31
0.0
  0
LWPOLYLINE
  5
19E
330
1F
100
AcDbEntity
  8
0
  6
Continuous
 62
     7
370
    25
100
AcDbPolyline
 90
        9
 70
   128
 43
0.0
 10
792.8758984013
 20
1623.350884756
 10
792.9481295467
 20
1623.3237568908
 10
793.0064616025
 20
1623.3043796473
 10
793.0497280965
 20
1623.2926843938
 10
793.0774395394
 20
1623.2887457571
 10
793.0899010107
 20
1623.292678072
 10
793.0864656451
 20
1623.3043719025
 10
793.0659979963
 20
1623.3237515717
 10
793.0279164583
 20
1623.3508847622
  0
ARC
  5
19F
330
1F
100
AcDbEntity
  8
0
  6
Continuous
 62
     7
370
    25
100
AcDbCircle
 10
773.3778859175
 20
1623.4248760933
 30
0.0
 40
0.9191498472666374
100
AcDbArc
 50
273.3737472448
 51
355.3827081651
  0
LINE
  5
1A0
330
1F
100
AcDbEntity
  8
0
  6
Continuous
 62
     7
370
    25
100
AcDbLine
 10
995.3538673079
 20
1601.5073192272
 30
0.0
 11
995.4917175251
 21
1602.5073192272
 31
0.0
  0
LINE
  5
1A1
330
1F
100
AcDbEntity
  8
0
  6
Continuous
 62
     7
370
    25
100
AcDbLine
 10
994.4429566634
 20
1602.5073192272
 30
0.0
 11
995.4917175251
 21
1602.5073192272
 31
0.0
  0
LINE
  5
1A2
330
1F
100
AcDbEntity
  8
0
  6
Continuous
 62
     7
370
    25
100
AcDbLine
 10
995.3538673079
 20
1601.5073192272
 30
0.0
 11
994.3260816634
 21
1601.5073192272
 31
0.0
  0
LINE
  5
1A3
330
1F
100
AcDbEntity
  8
0
  6
Continuous
 62
     7
370
    25
100
AcDbLine
 10
995.4917175251
 20
1607.5073192272
 30
0.0
 11
994.4429566634
 21
1607.5073192272
 31
0.0
  0
LINE
  5
1A4
330
1F
100
AcDbEntity
  8
0
  6
Continuous
 62
     7
370
    25
100
AcDbLine
 10
995.4917175251
 20
1607.5073192272
 30
0.0
 11
995.4917175251
 21
1602.5073192272
 31
0.0
  0
LINE
  5
1A5
330
1F
100
AcDbEntity
  8
0
  6
Continuous
 62
     7
370
    25
100
AcDbLine
 10
995.3538673079
 20
1608.5073192272
 30
0.0
 11
995.4917175251
 21
1607.5073192272
 31
0.0
  0
LINE
  5
1A6
330
1F
100
AcDbEntity
  8
0
  6
Continuous
 62
     7
370
    25
100
AcDbLine
 10
994.3260816634
 20
1608.5073192272
 30
0.0
 11
995.3538673079
 21
1608.5073192272
 31
0.0
  0
LINE
  5
1A7
330
1F
100
AcDbEntity
  8
0
  6
Continuous
 62
     7
370
    25
100
AcDbLine
 10
1182.2981399379
 20
1601.5073192272
 30
0.0
 11
1182.4359901552
 21
1602.5073192272
 31
0.0
  0
LINE
  5
1A8
330
1F
100
AcDbEntity
  8
0
  6
Continuous
 62
     7
370
    25
100
AcDbLine
 10
1182.4359901552
 20
1602.5073192272
 30
0.0
 11
995.4917175251
 21
1602.5073192272
 31
0.0
  0
LINE
  5
1A9
330
1F
100
AcDbEntity
  8
0
  6
Continuous
 62
     7
370
    25
100
AcDbLine
 10
1182.2981399379
 20
1601.5073192272
 30
0.0
 11
995.3538673079
 21
1601.5073192272
 31
0.0
  0
LINE
  5
1AA
330
1F
100
AcDbEntity
  8
0
  6
Continuous
 62
     7
370
    25
100
AcDbLine
 10
1182.4359901552
 20
1607.5073192272
 30
0.0
 11
1182.2981399379
 21
1608.5073192271
 31
0.0
  0
LINE
  5
1AB
330
1F
100
AcDbEntity
  8
0
  6
Continuous
 62
     7
370
    25
100
AcDbLine
 10
1182.4359901552
 20
1607.5073192272
 30
0.0
 11
995.4917175251
 21
1607.5073192272
 31
0.0
  0
LINE
  5
1AC
330
1F
100
AcDbEntity
  8
0
  6
Continuous
 62
     7
370
    25
100
AcDbLine
 10
995.3538673079
 20
1608.5073192272
 30
0.0
 11
1182.2981399379
 21
1608.5073192271
 31
0.0
  0
LINE
  5
1AD
330
1F
100
AcDbEntity
  8
0
  6
Continuous
 62
     7
370
    25
100
AcDbLine
 10
1182.4359901552
 20
1602.5073192272
 30
0.0
 11
1182.4359901552
 21
1607.5073192272
 31
0.0
  0
LINE
  5
1AE
330
1F
100
AcDbEntity
  8
0
  6
Continuous
 62
     7
370
    25
100
AcDbLine
 10
1191.9196377655
 20
1607.5073192271
 30
0.0
 11
1182.4359901552
 21
1607.5073192272
 31
0.0
  0
LINE
  5
1AF
330
1F
100
AcDbEntity
  8
0
  6
Continuous
 62
     7
370
    25
100
AcDbLine
 10
1182.2981399379
 20
1608.5073192271
 30
0.0
 11
1190.9196377655
 21
1608.5073192271
 31
0.0
  0
LINE
  5
1B0
330
1F
100
AcDbEntity
  8
0
  6
Continuous
 62
     7
370
    25
100
AcDbLine
 10
1191.9196377655
 20
1602.5073192271
 30
0.0
 11
1182.4359901552
 21
1602.5073192272
 31
0.0
  0
LINE
  5
1B1
330
1F
100
AcDbEntity
  8
0
  6
Continuous
 62
     7
370
    25
100
AcDbLine
 10
1190.9196377655
 20
1601.5073192272
 30
0.0
 11
1182.2981399379
 21
1601.5073192272
 31
0.0
  0
LINE
  5
1B2
330
1F
100
AcDbEntity
  8
0
  6
Continuous
 62
     7
370
    25
100
AcDbLine
 10
1235.6609846214
 20
1598.5073192333
 30
0.0
 11
1235.6609846214
 21
1582.5073192333
 31
0.0
  0
LINE
  5
1B3
330
1F
100
AcDbEntity
  8
0
  6
Continuous
 62
     7
370
    25
100
AcDbLine
 10
1235.1609846214
 20
1582.5073192333
 30
0.0
 11
1235.6609846214
 21
1582.5073192333
 31
0.0
  0
LINE
  5
1B4
330
1F
100
AcDbEntity
  8
0
  6
Continuous
 62
     7
370
    25
100
AcDbLine
 10
1235.1609846214
 20
1598.5073192333
 30
0.0
 11
1235.1609846214
 21
1582.5073192333
 31
0.0
  0
LINE
  5
1B5
330
1F
100
AcDbEntity
  8
0
  6
Continuous
 62
     7
370
    25
100
AcDbLine
 10
1235.6609846214
 20
1598.5073192333
 30
0.0
 11
1235.1609846214
 21
1598.5073192333
 31
0.0
  0
LINE
  5
1B6
330
1F
100
AcDbEntity
  8
0
  6
Continuous
 62
     7
370
    25
100
AcDbLine
 10
1217.6609846219
 20
1582.5073192333
 30
0.0
 11
1235.1609846214
 21
1582.5073192333
 31
0.0
  0
LINE
  5
1B7
330
1F
100
AcDbEntity
  8
0
  6
Continuous
 62
     7
370
    25
100
AcDbLine
 10
1217.660984622
 20
1598.5073192333
 30
0.0
 11
1217.6609846219
 21
1582.5073192333
 31
0.0
  0
LINE
  5
1B8
330
1F
100
AcDbEntity
  8
0
  6
Continuous
 62
     7
370
    25
100
AcDbLine
 10
1235.1609846214
 20
1598.5073192333
 30
0.0
 11
1217.660984622
 21
1598.5073192333
 31
0.0
  0
LINE
  5
1B9
330
1F
100
AcDbEntity
  8
0
  6
Continuous
 62
     7
370
    25
100
AcDbLine
 10
1217.1609846217
 20
1582.5073192334
 30
0.0
 11
1217.6609846219
 21
1582.5073192333
 31
0.0
  0
LINE
  5
1BA
330
1F
100
AcDbEntity
  8
0
  6
Continuous
 62
     7
370
    25
100
AcDbLine
 10
1217.160984622
 20
1598.5073192334
 30
0.0
 11
1217.1609846217
 21
1582.5073192334
 31
0.0
  0
LINE
  5
1BB
330
1F
100
AcDbEntity
  8
0
  6
Continuous
 62
     7
370
    25
100
AcDbLine
 10
1217.660984622
 20
1598.5073192333
 30
0.0
 11
1217.160984622
 21
1598.5073192334
 31
0.0
  0
LINE
  5
1BC
330
1F
100
AcDbEntity
  8
0
  6
Continuous
 62
     7
370
    25
100
AcDbLine
 10
1217.660984622
 20
1599.0073192333
 30
0.0
 11
1217.660984622
 21
1598.5073192333
 31
0.0
  0
LINE
  5
1BD
330
1F
100
AcDbEntity
  8
0
  6
Continuous
 62
     7
370
    25
100
AcDbLine
 10
1217.660984622
 20
1599.0073192333
 30
0.0
 11
1235.1609846214
 21
1599.0073192333
 31
0.0
  0
LINE
  5
1BE
330
1F
100
AcDbEntity
  8
0
  6
Continuous
 62
     7
370
    25
100
AcDbLine
 10
1235.1609846214
 20
1599.0073192333
 30
0.0
 11
1235.1609846214
 21
1598.5073192333
 31
0.0
  0
ARC
  5
1BF
330
1F
100
AcDbEntity
  8
0
  6
Continuous
 62
     7
370
    25
100
AcDbCircle
 10
1235.1609846214
 20
1598.5073192333
 30
0.0
 40
0.5000000000002274
100
AcDbArc
 50
0.0000000002
 51
90.0
  0
ARC
  5
1C0
330
1F
100
AcDbEntity
  8
0
  6
Continuous
 62
     7
370
    25
100
AcDbCircle
 10
1217.660984622
 20
1598.5073192333
 30
0.0
 40
0.5000000000002274
100
AcDbArc
 50
90.0
 51
179.9999999989
  0
ARC
  5
1C1
330
1F
100
AcDbEntity
  8
0
  6
Continuous
 62
     7
370
    25
100
AcDbCircle
 10
1235.1609846214
 20
1582.5073192333
 30
0.0
 40
0.5
100
AcDbArc
 50
270.0
 51
0.0
  0
LINE
  5
1C2
330
1F
100
AcDbEntity
  8
0
  6
Continuous
 62
     7
370
    25
100
AcDbLine
 10
1235.1609846214
 20
1582.5073192333
 30
0.0
 11
1235.1609846214
 21
1582.0073192333
 31
0.0
  0
LINE
  5
1C3
330
1F
100
AcDbEntity
  8
0
  6
Continuous
 62
     7
370
    25
100
AcDbLine
 10
1235.1609846214
 20
1582.0073192333
 30
0.0
 11
1217.6609846217
 21
1582.0073192333
 31
0.0
  0
LINE
  5
1C4
330
1F
100
AcDbEntity
  8
0
  6
Continuous
 62
     7
370
    25
100
AcDbLine
 10
1217.6609846219
 20
1582.5073192333
 30
0.0
 11
1217.6609846217
 21
1582.0073192333
 31
0.0
  0
ARC
  5
1C5
330
1F
100
AcDbEntity
  8
0
  6
Continuous
 62
     7
370
    25
100
AcDbCircle
 10
1217.6609846217
 20
1582.5073192333
 30
0.0
 40
0.4999999999997726
100
AcDbArc
 50
179.9999999989
 51
270.0
  0
LINE
  5
1C6
330
1F
100
AcDbEntity
  8
0
  6
Continuous
 62
     7
370
    25
100
AcDbLine
 10
601.1609846208
 20
1598.5073192334
 30
0.0
 11
600.6609846208
 21
1598.5073192333
 31
0.0
  0
LINE
  5
1C7
330
1F
100
AcDbEntity
  8
0
  6
Continuous
 62
     7
370
    25
100
AcDbLine
 10
601.1609846211
 20
1582.5073192334
 30
0.0
 11
601.1609846208
 21
1598.5073192334
 31
0.0
  0
LINE
  5
1C8
330
1F
100
AcDbEntity
  8
0
  6
Continuous
 62
     7
370
    25
100
AcDbLine
 10
600.6609846211
 20
1582.5073192333
 30
0.0
 11
601.1609846211
 21
1582.5073192334
 31
0.0
  0
LINE
  5
1C9
330
1F
100
AcDbEntity
  8
0
  6
Continuous
 62
     7
370
    25
100
AcDbLine
 10
600.6609846211
 20
1582.5073192333
 30
0.0
 11
600.6609846208
 21
1598.5073192333
 31
0.0
  0
LINE
  5
1CA
330
1F
100
AcDbEntity
  8
0
  6
Continuous
 62
     7
370
    25
100
AcDbLine
 10
583.1609846214
 20
1582.5073192333
 30
0.0
 11
583.1609846214
 21
1598.5073192333
 31
0.0
  0
LINE
  5
1CB
330
1F
100
AcDbEntity
  8
0
  6
Continuous
 62
     7
370
    25
100
AcDbLine
 10
600.6609846208
 20
1598.5073192333
 30
0.0
 11
583.1609846214
 21
1598.5073192333
 31
0.0
  0
LINE
  5
1CC
330
1F
100
AcDbEntity
  8
0
  6
Continuous
 62
     7
370
    25
100
AcDbLine
 10
583.1609846214
 20
1582.5073192333
 30
0.0
 11
600.6609846211
 21
1582.5073192333
 31
0.0
  0
ARC
  5
1CD
330
1F
100
AcDbEntity
  8
0
  6
Continuous
 62
     7
370
    25
100
AcDbCircle
 10
600.6609846208
 20
1598.5073192333
 30
0.0
 40
0.5000000000001137
100
AcDbArc
 50
0.000000003
 51
90.0
  0
LINE
  5
1CE
330
1F
100
AcDbEntity
  8
0
  6
Continuous
 62
     7
370
    25
100
AcDbLine
 10
600.6609846208
 20
1598.5073192333
 30
0.0
 11
600.6609846208
 21
1599.0073192333
 31
0.0
  0
LINE
  5
1CF
330
1F
100
AcDbEntity
  8
0
  6
Continuous
 62
     7
370
    25
100
AcDbLine
 10
583.1609846214
 20
1598.5073192333
 30
0.0
 11
583.1609846215
 21
1599.0073192333
 31
0.0
  0
LINE
  5
1D0
330
1F
100
AcDbEntity
  8
0
  6
Continuous
 62
     7
370
    25
100
AcDbLine
 10
583.1609846215
 20
1599.0073192333
 30
0.0
 11
600.6609846208
 21
1599.0073192333
 31
0.0
  0
LINE
  5
1D1
330
1F
100
AcDbEntity
  8
0
  6
Continuous
 62
     7
370
    25
100
AcDbLine
 10
583.1609846214
 20
1598.5073192333
 30
0.0
 11
582.6609846214
 21
1598.5073192333
 31
0.0
  0
ARC
  5
1D2
330
1F
100
AcDbEntity
  8
0
  6
Continuous
 62
     7
370
    25
100
AcDbCircle
 10
583.1609846214
 20
1598.5073192333
 30
0.0
 40
0.5
100
AcDbArc
 50
89.9999999939
 51
180.0
  0
LINE
  5
1D3
330
1F
100
AcDbEntity
  8
0
  6
Continuous
 62
     7
370
    25
100
AcDbLine
 10
582.6609846214
 20
1582.5073192333
 30
0.0
 11
583.1609846214
 21
1582.5073192333
 31
0.0
  0
LINE
  5
1D4
330
1F
100
AcDbEntity
  8
0
  6
Continuous
 62
     7
370
    25
100
AcDbLine
 10
582.6609846214
 20
1582.5073192333
 30
0.0
 11
582.6609846214
 21
1598.5073192333
 31
0.0
  0
LINE
  5
1D5
330
1F
100
AcDbEntity
  8
0
  6
Continuous
 62
     7
370
    25
100
AcDbLine
 10
583.1609846214
 20
1582.5073192333
 30
0.0
 11
583.1609846214
 21
1582.0073192333
 31
0.0
  0
LINE
  5
1D6
330
1F
100
AcDbEntity
  8
0
  6
Continuous
 62
     7
370
    25
100
AcDbLine
 10
600.6609846211
 20
1582.0073192333
 30
0.0
 11
600.6609846211
 21
1582.5073192333
 31
0.0
  0
LINE
  5
1D7
330
1F
100
AcDbEntity
  8
0
  6
Continuous
 62
     7
370
    25
100
AcDbLine
 10
600.6609846211
 20
1582.0073192333
 30
0.0
 11
583.1609846214
 21
1582.0073192333
 31
0.0
  0
ARC
  5
1D8
330
1F
100
AcDbEntity
  8
0
  6
Continuous
 62
     7
370
    25
100
AcDbCircle
 10
583.1609846214
 20
1582.5073192333
 30
0.0
 40
0.4999999999998863
100
AcDbArc
 50
180.0
 51
270.0
  0
ARC
  5
1D9
330
1F
100
AcDbEntity
  8
0
  6
Continuous
 62
     7
370
    25
100
AcDbCircle
 10
600.6609846211
 20
1582.5073192333
 30
0.0
 40
0.5000000000004547
100
AcDbArc
 50
270.0
 51
0.0000000011
  0
LINE
  5
1DA
330
1F
100
AcDbEntity
  8
0
  6
Continuous
 62
     7
370
    25
100
AcDbLine
 10
600.6609846208
 20
1599.0073192314
 30
0.0
 11
1217.660984622
 21
1599.0073192314
 31
0.0
  0
LINE
  5
1DB
330
1F
100
AcDbEntity
  8
0
  6
Continuous
 62
     7
370
    25
100
AcDbLine
 10
1217.6609846217
 20
1582.0073192333
 30
0.0
 11
600.6609846211
 21
1582.0073192333
 31
0.0
  0
LINE
  5
1DC
330
1F
100
AcDbEntity
  8
0
  6
Continuous
 62
     7
370
    25
100
AcDbLine
 10
1478.6609846204
 20
1607.5073192271
 30
0.0
 11
1191.9196377655
 21
1607.5073192271
 31
0.0
  0
LINE
  5
1DD
330
1F
100
AcDbEntity
  8
0
  6
Continuous
 62
     7
370
    25
100
AcDbLine
 10
768.6609846205
 20
1607.5073192271
 30
0.0
 11
528.6609846204
 21
1607.5073192271
 31
0.0
  0
LINE
  5
1DE
330
1F
100
AcDbEntity
  8
0
  6
Continuous
 62
     7
370
    25
100
AcDbLine
 10
528.6609846204
 20
1312.5073192271
 30
0.0
 11
1478.6609846204
 21
1312.5073192271
 31
0.0
  0
LINE
  5
1DF
330
1F
100
AcDbEntity
  8
0
  6
Continuous
 62
     7
370
    25
100
AcDbLine
 10
528.6609846204
 20
1607.5073192271
 30
0.0
 11
528.6609846204
 21
1312.5073192271
 31
0.0
  0
LINE
  5
1E0
330
1F
100
AcDbEntity
  8
0
  6
Continuous
 62
     7
370
    25
100
AcDbLine
 10
1478.6609846204
 20
1312.5073192271
 30
0.0
 11
1478.6609846204
 21
1607.5073192271
 31
0.0
  0
LINE
  5
1E1
330
1F
100
AcDbEntity
  8
0
  6
Continuous
 62
     7
370
    25
100
AcDbLine
 10
1483.6609846204
 20
1312.5073192271
 30
0.0
 11
1478.6609846204
 21
1312.5073192271
 31
0.0
  0
LINE
  5
1E2
330
1F
100
AcDbEntity
  8
0
  6
Continuous
 62
     7
370
    25
100
AcDbLine
 10
528.6609846204
 20
1312.5073192271
 30
0.0
 11
523.6609846204
 21
1312.5073192271
 31
0.0
  0
LINE
  5
1E3
330
1F
100
AcDbEntity
  8
0
  6
Continuous
 62
     7
370
    25
100
AcDbLine
 10
1603.6609846204
 20
1812.5073192271
 30
0.0
 11
403.6609846204
 21
1812.5073192271
 31
0.0
  0
LINE
  5
1E4
330
1F
100
AcDbEntity
  8
0
  6
Continuous
 62
     7
370
    25
100
AcDbLine
 10
1603.6609846204
 20
1312.5073192271
 30
0.0
 11
1603.6609846204
 21
1812.5073192271
 31
0.0
  0
LINE
  5
1E5
330
1F
100
AcDbEntity
  8
0
  6
Continuous
 62
     7
370
    25
100
AcDbLine
 10
1483.6609846204
 20
1312.5073192271
 30
0.0
 11
1483.6609846204
 21
1612.5073192271
 31
0.0
  0
LINE
  5
1E6
330
1F
100
AcDbEntity
  8
0
  6
Continuous
 62
     7
370
    25
100
AcDbLine
 10
1483.6609846204
 20
1612.5073192271
 30
0.0
 11
798.6609846204
 21
1612.5073192271
 31
0.0
  0
LINE
  5
1E7
330
1F
100
AcDbEntity
  8
0
  6
Continuous
 62
     7
370
    25
100
AcDbLine
 10
768.6609846205
 20
1612.5073192271
 30
0.0
 11
523.6609846204
 21
1612.5073192271
 31
0.0
  0
LINE
  5
1E8
330
1F
100
AcDbEntity
  8
0
  6
Continuous
 62
     7
370
    25
100
AcDbLine
 10
403.6609846204
 20
1312.5073192271
 30
0.0
 11
523.6609846204
 21
1312.5073192271
 31
0.0
  0
LINE
  5
1E9
330
1F
100
AcDbEntity
  8
0
  6
Continuous
 62
     7
370
    25
100
AcDbLine
 10
1483.6609846204
 20
1312.5073192271
 30
0.0
 11
1603.6609846204
 21
1312.5073192271
 31
0.0
  0
LINE
  5
1EA
330
1F
100
AcDbEntity
  8
0
  6
Continuous
 62
     7
370
    25
100
AcDbLine
 10
403.6609846204
 20
1812.5073192271
 30
0.0
 11
403.6609846204
 21
1312.5073192271
 31
0.0
  0
LINE
  5
1EB
330
1F
100
AcDbEntity
  8
0
  6
Continuous
 62
     7
370
    25
100
AcDbLine
 10
523.6609846204
 20
1612.5073192271
 30
0.0
 11
523.6609846204
 21
1312.5073192271
 31
0.0
  0
LINE
  5
1EC
330
1F
100
AcDbEntity
  8
0
  6
Continuous
 62
     7
370
    25
100
AcDbLine
 10
785.4141096205
 20
1611.5073192273
 30
0.0
 11
798.6609846204
 21
1611.5073192273
 31
0.0
  0
LINE
  5
1ED
330
1F
100
AcDbEntity
  8
0
  6
Continuous
 62
     7
370
    25
100
AcDbLine
 10
781.3576782295
 20
1624.2513032582
 30
0.0
 11
781.3028035146
 21
1623.3508847622
 31
0.0
  0
LINE
  5
1EE
330
1F
100
AcDbEntity
  8
0
  6
Continuous
 62
     7
370
    25
100
AcDbLine
 10
780.7651609536
 20
1623.3508847622
 30
0.0
 11
780.8200356666
 21
1624.2513032582
 31
0.0
  0
LINE
  5
1EF
330
1F
100
AcDbEntity
  8
0
  6
Continuous
 62
     7
370
    25
100
AcDbLine
 10
779.1251938061
 20
1624.2513032582
 30
0.0
 11
779.0295481324
 21
1623.3508847622
 31
0.0
  0
LINE
  5
1F0
330
1F
100
AcDbEntity
  8
0
  6
Continuous
 62
     7
370
    25
100
AcDbLine
 10
784.406817715
 20
1623.3508847622
 30
0.0
 11
784.3887766073
 21
1624.2513032582
 31
0.0
  0
LINE
  5
1F1
330
1F
100
AcDbEntity
  8
0
  6
Continuous
 62
     7
370
    25
100
AcDbLine
 10
788.12925609
 20
1623.3508847622
 30
0.0
 11
788.0308262845
 21
1624.2513032582
 31
0.0
  0
LINE
  5
1F2
330
1F
100
AcDbEntity
  8
0
  6
Continuous
 62
     7
370
    25
100
AcDbLine
 10
784.6890818741
 20
1624.2513032582
 30
0.0
 11
784.7071229818
 21
1623.3508847622
 31
0.0
  0
LINE
  5
1F3
330
1F
100
AcDbEntity
  8
0
  6
Continuous
 62
     7
370
    25
100
AcDbLine
 10
788.5184899889
 20
1624.2513032582
 30
0.0
 11
788.6169197907
 21
1623.3508847622
 31
0.0
  0
LINE
  5
1F4
330
1F
100
AcDbEntity
  8
0
  6
Continuous
 62
     7
370
    25
100
AcDbLine
 10
789.5845256981
 20
1623.3508847622
 30
0.0
 11
789.4633660451
 21
1624.2513032582
 31
0.0
  0
LINE
  5
1F5
330
1F
100
AcDbEntity
  8
0
  6
Continuous
 62
     7
370
    25
100
AcDbLine
 10
778.7922108204
 20
1623.3508847622
 30
0.0
 11
778.8878564941
 21
1624.2513032582
 31
0.0
  0
LINE
  5
1F6
330
1F
100
AcDbEntity
  8
0
  6
Continuous
 62
     7
370
    25
100
AcDbLine
 10
775.5461121156
 20
1624.2513032582
 30
0.0
 11
775.3700777478
 21
1623.3508847623
 31
0.0
  0
LINE
  5
1F7
330
1F
100
AcDbEntity
  8
0
  6
Continuous
 62
     7
370
    25
100
AcDbLine
 10
789.6507245143
 20
1624.2513032582
 30
0.0
 11
789.7718841672
 21
1623.3508847622
 31
0.0
  0
LINE
  5
1F8
330
1F
100
AcDbEntity
  8
0
  6
Continuous
 62
     7
370
    25
100
AcDbLine
 10
792.8758983999
 20
1623.3508847622
 30
0.0
 11
792.6818229211
 21
1624.2513032582
 31
0.0
  0
LINE
  5
1F9
330
1F
100
AcDbEntity
  8
0
  6
Continuous
 62
     7
370
    25
100
AcDbLine
 10
774.2940527826
 20
1623.3508847623
 30
0.0
 11
775.0822315316
 21
1623.3508847623
 31
0.0
  0
LINE
  5
1FA
330
1F
100
AcDbEntity
  8
0
  6
Continuous
 62
     7
370
    25
100
AcDbLine
 10
774.4881282582
 20
1624.2513032582
 30
0.0
 11
774.2940527826
 21
1623.3508847623
 31
0.0
  0
LWPOLYLINE
  5
1FB
330
1F
100
AcDbEntity
  8
0
  6
Continuous
 62
     7
370
    25
100
AcDbPolyline
 90
        3
 70
   128
 43
0.0
 10
774.2335500545
 20
1623.2975775583
 10
774.2370042825
 20
1623.3060001065
 10
774.2940527826
 20
1623.3508847623
  0
LINE
  5
1FC
330
1F
100
AcDbEntity
  8
0
  6
Continuous
 62
     7
370
    25
100
AcDbLine
 10
1217.160984622
 20
1598.5073192314
 30
0.0
 11
601.1609846208
 21
1598.5073192314
 31
0.0
  0
LINE
  5
1FD
330
1F
100
AcDbEntity
  8
0
  6
Continuous
 62
     7
370
    25
100
AcDbLine
 10
1217.1609846217
 20
1582.5073192333
 30
0.0
 11
601.1609846211
 21
1582.5073192333
 31
0.0
  0
DIMENSION
  5
1FE
330
1F
100
AcDbEntity
  8
FORMAT
100
AcDbDimension
  2
_D
 10
1235.6609846214
 20
1464.4085128951
 30
0.0
 11
909.1609846214
 21
1464.4085128951
 31
0.0
 70
   160
  1
<>
 71
     2
 42
-1.0
  3
SLDDIMSTYLE0
100
AcDbAlignedDimension
 13
582.6609846214
 23
1582.5073192333
 33
0.0
 14
1235.6609846214
 24
1582.5073192333
 34
0.0
 50
0.0
100
AcDbRotatedDimension
  0
DIMENSION
  5
209
330
1F
100
AcDbEntity
  8
FORMAT
100
AcDbDimension
  2
_D_1
 10
1274.2829487951
 20
1599.0073192333
 30
0.0
 11
1274.2829487951
 21
1551.0247568297
 31
0.0
 70
   160
  1
<>
 71
     2
 42
-1.0
  3
SLDDIMSTYLE1
100
AcDbAlignedDimension
 13
1235.1609846214
 23
1582.0073192333
 33
0.0
 14
1235.1609846214
 24
1599.0073192333
 34
0.0
 50
90.0
100
AcDbRotatedDimension
  0
DIMENSION
  5
216
330
1F
100
AcDbEntity
  8
FORMAT
100
AcDbDimension
  2
_D_2
 10
474.4309639077
 20
1729.0073192271
 30
0.0
 11
474.4309639077
 21
1681.5073192271
 31
0.0
 70
   160
  1
<>
 71
     2
 42
-1.0
  3
SLDDIMSTYLE0
100
AcDbAlignedDimension
 13
513.6609846204
 23
1634.0073192271
 33
0.0
 14
513.6609846204
 24
1729.0073192271
 34
0.0
 50
90.0
100
AcDbRotatedDimension
  0
DIMENSION
  5
220
330
1F
100
AcDbEntity
  8
FORMAT
100
AcDbDimension
  2
_D_3
 10
1193.1609846204
 20
1768.3785754889
 30
0.0
 11
848.6609846204
 21
1768.3785754889
 31
0.0
 70
   160
  1
<>
 71
     2
 42
-1.0
  3
SLDDIMSTYLE0
100
AcDbAlignedDimension
 13
504.1609846204
 23
1724.0073192271
 33
0.0
 14
1193.1609846204
 24
1724.0073192271
 34
0.0
100
AcDbRotatedDimension
  0
DIMENSION
  5
22A
330
1F
100
AcDbEntity
  8
FORMAT
100
AcDbDimension
  2
_D_4
 10
783.6609846205
 20
1410.4590454845
 30
0.0
 11
643.6609846204
 21
1410.4590454845
 31
0.0
 70
   160
  1
<>
 71
     2
 42
-1.0
  3
SLDDIMSTYLE0
100
AcDbAlignedDimension
 13
503.6609846204
 23
1378.383201621
 33
0.0
 14
783.6609846205
 24
1597.0073192273
 34
0.0
100
AcDbRotatedDimension
  0
LINE
  5
234
330
1F
100
AcDbEntity
  8
0
  6
CENTER
 62
     7
370
    18
100
AcDbLine
 10
624.3033453523
 20
1872.5073192271
 30
0.0
 11
624.3033453523
 21
1252.5073192271
 31
0.0
  0
LINE
  5
235
330
1F
100
AcDbEntity
  8
0
  6
Continuous
 62
     7
370
    18
100
AcDbLine
 10
535.4033453523
 20
1858.5073192271
 30
0.0
 11
624.3033453523
 21
1858.5073192271
 31
0.0
  0
SOLID
  5
236
330
1F
100
AcDbEntity
  8
0
  6
Continuous
 62
     7
370
    18
100
AcDbTrace
 10
624.3033453523
 20
1858.5073192271
 30
0.0
 11
579.8533453523
 21
1865.6193192271
 31
0.0
 12
579.8533453523
 22
1851.3953192271
 32
0.0
 13
579.8533453523
 23
1851.3953192271
 33
0.0
  0
LINE
  5
237
330
1F
100
AcDbEntity
  8
0
  6
Continuous
 62
     7
370
    18
100
AcDbLine
 10
535.4033453523
 20
1266.5073192271
 30
0.0
 11
624.3033453523
 21
1266.5073192271
 31
0.0
  0
SOLID
  5
238
330
1F
100
AcDbEntity
  8
0
  6
Continuous
 62
     7
370
    18
100
AcDbTrace
 10
624.3033453523
 20
1266.5073192271
 30
0.0
 11
579.8533453523
 21
1273.6193192271
 31
0.0
 12
579.8533453523
 22
1259.3953192271
 32
0.0
 13
579.8533453523
 23
1259.3953192271
 33
0.0
  0
MTEXT
  5
239
330
1F
100
AcDbEntity
  8
0
  6
Continuous
 62
     7
100
AcDbMText
 10
535.4033453523
 20
1912.1848047766
 30
0.0
 40
35.0
 41
0.0
 71
     1
 72
     1
  1
A
  7
SLDTEXTSTYLE0
 73
     1
 44
1.0
  0
MTEXT
  5
23A
330
1F
100
AcDbEntity
  8
0
  6
Continuous
 62
     7
100
AcDbMText
 10
535.4033453523
 20
1248.6327165392
 30
0.0
 40
35.0
 41
0.0
 71
     1
 72
     1
  1
A
  7
SLDTEXTSTYLE0
 73
     1
 44
1.0
  0
LINE
  5
23B
330
1F
100
AcDbEntity
  8
FORMAT
  6
CENTERX2
370
    18
100
AcDbLine
 10
783.6609846205
 20
1597.0073192273
 30
0.0
 11
783.6609846205
 21
1646.3114576879
 31
0.0
  0
LINE
  5
23C
330
1F
100
AcDbEntity
  8
FORMAT
  6
CENTERX2
370
    18
100
AcDbLine
 10
503.6609846204
 20
1477.5073192271
 30
0.0
 11
503.6609846204
 21
1378.383201621
 31
0.0
  0
ARC
  5
23D
330
1F
100
AcDbEntity
  8
0
  6
Continuous
 62
     7
370
    25
100
AcDbCircle
 10
1173.1609846204
 20
872.7560094132
 30
0.0
 40
1.999999999999894
100
AcDbArc
 50
14.4775121862
 51
165.5224878124
  0
ARC
  5
23E
330
1F
100
AcDbEntity
  8
0
  6
Continuous
 62
     7
370
    25
100
AcDbCircle
 10
1153.6609846204
 20
872.7560094132
 30
0.0
 40
3.2500000000004
100
AcDbArc
 50
8.8498831004
 51
171.1501169005
  0
ARC
  5
23F
330
1F
100
AcDbEntity
  8
0
  6
Continuous
 62
     7
370
    25
100
AcDbCircle
 10
927.6609846204
 20
872.7560094132
 30
0.0
 40
3.249999999996354
100
AcDbArc
 50
8.8498830993
 51
171.1501169007
  0
ARC
  5
240
330
1F
100
AcDbEntity
  8
0
  6
Continuous
 62
     7
370
    25
100
AcDbCircle
 10
860.6609846204
 20
872.7560094132
 30
0.0
 40
3.000000000000452
100
AcDbArc
 50
9.5940682278
 51
170.4059317722
  0
ARC
  5
241
330
1F
100
AcDbEntity
  8
0
  6
Continuous
 62
     7
370
    25
100
AcDbCircle
 10
736.6609846204
 20
872.7560094132
 30
0.0
 40
3.000000000000363
100
AcDbArc
 50
9.594068228
 51
170.4059317719
  0
ARC
  5
242
330
1F
100
AcDbEntity
  8
0
  6
Continuous
 62
     7
370
    25
100
AcDbCircle
 10
720.6609846204
 20
872.7560094132
 30
0.0
 40
3.249999999996521
100
AcDbArc
 50
8.8498830994
 51
171.1501169005
  0
ARC
  5
243
330
1F
100
AcDbEntity
  8
0
  6
Continuous
 62
     7
370
    25
100
AcDbCircle
 10
553.6609846204
 20
872.7560094132
 30
0.0
 40
2.000000000000544
100
AcDbArc
 50
14.4775121877
 51
165.5224878124
  0
ARC
  5
244
330
1F
100
AcDbEntity
  8
0
  6
Continuous
 62
     7
370
    25
100
AcDbCircle
 10
524.1609846204
 20
872.7560094132
 30
0.0
 40
2.000000000000652
100
AcDbArc
 50
14.4775121876
 51
165.5224878126
  0
LINE
  5
245
330
1F
100
AcDbEntity
  8
0
  6
Continuous
 62
     7
370
    25
100
AcDbLine
 10
1183.6609846204
 20
879.2560094132
 30
0.0
 11
1183.6609846204
 21
873.2560094132
 31
0.0
  0
LINE
  5
246
330
1F
100
AcDbEntity
  8
0
  6
Continuous
 62
     7
370
    25
100
AcDbLine
 10
513.6609846204
 20
873.2560094132
 30
0.0
 11
513.6609846204
 21
879.2560094132
 31
0.0
  0
ARC
  5
247
330
1F
100
AcDbEntity
  8
0
  6
Continuous
 62
     7
370
    25
100
AcDbCircle
 10
524.1609846204
 20
872.7560094132
 30
0.0
 40
2.000000000000766
100
AcDbArc
 50
165.5224878126
 51
180.0000000001
  0
LINE
  5
248
330
1F
100
AcDbEntity
  8
0
  6
Continuous
 62
     7
370
    25
100
AcDbLine
 10
513.6609846204
 20
873.2560094132
 30
0.0
 11
513.6609846204
 21
872.7560094132
 31
0.0
  0
ARC
  5
249
330
1F
100
AcDbEntity
  8
0
  6
Continuous
 62
     7
370
    25
100
AcDbCircle
 10
524.1609846204
 20
872.7560094132
 30
0.0
 40
2.0
100
AcDbArc
 50
180.0000000001
 51
194.4775121861
  0
LINE
  5
24A
330
1F
100
AcDbEntity
  8
0
  6
Continuous
 62
     7
370
    25
100
AcDbLine
 10
513.6609846204
 20
872.7560094132
 30
0.0
 11
513.6609846204
 21
872.2560094132
 31
0.0
  0
ARC
  5
24B
330
1F
100
AcDbEntity
  8
0
  6
Continuous
 62
     7
370
    25
100
AcDbCircle
 10
524.1609846204
 20
872.7560094132
 30
0.0
 40
2.000000000000021
100
AcDbArc
 50
194.4775121861
 51
345.5224878139
  0
ARC
  5
24C
330
1F
100
AcDbEntity
  8
0
  6
Continuous
 62
     7
370
    25
100
AcDbCircle
 10
553.6609846204
 20
872.7560094132
 30
0.0
 40
2.00000000000012
100
AcDbArc
 50
194.4775121861
 51
345.5224878141
  0
ARC
  5
24D
330
1F
100
AcDbEntity
  8
0
  6
Continuous
 62
     7
370
    25
100
AcDbCircle
 10
720.6609846204
 20
872.7560094132
 30
0.0
 40
3.249999999996013
100
AcDbArc
 50
188.8498830984
 51
351.1501169016
  0
ARC
  5
24E
330
1F
100
AcDbEntity
  8
0
  6
Continuous
 62
     7
370
    25
100
AcDbCircle
 10
736.6609846204
 20
872.7560094132
 30
0.0
 40
3.000000000000107
100
AcDbArc
 50
189.5940682267
 51
350.4059317733
  0
ARC
  5
24F
330
1F
100
AcDbEntity
  8
0
  6
Continuous
 62
     7
370
    25
100
AcDbCircle
 10
860.6609846204
 20
872.7560094132
 30
0.0
 40
3.00000000000013
100
AcDbArc
 50
189.5940682269
 51
350.4059317731
  0
ARC
  5
250
330
1F
100
AcDbEntity
  8
0
  6
Continuous
 62
     7
370
    25
100
AcDbCircle
 10
927.6609846204
 20
872.7560094132
 30
0.0
 40
3.249999999995901
100
AcDbArc
 50
188.8498830984
 51
351.1501169016
  0
ARC
  5
251
330
1F
100
AcDbEntity
  8
0
  6
Continuous
 62
     7
370
    25
100
AcDbCircle
 10
1153.6609846204
 20
872.7560094132
 30
0.0
 40
3.250000000000168
100
AcDbArc
 50
188.8498830983
 51
351.1501169018
  0
ARC
  5
252
330
1F
100
AcDbEntity
  8
0
  6
Continuous
 62
     7
370
    25
100
AcDbCircle
 10
1173.1609846204
 20
872.7560094132
 30
0.0
 40
2.000000000000204
100
AcDbArc
 50
194.4775121856
 51
345.5224878144
  0
LINE
  5
253
330
1F
100
AcDbEntity
  8
0
  6
Continuous
 62
     7
370
    25
100
AcDbLine
 10
1183.6609846204
 20
872.2560094132
 30
0.0
 11
1183.6609846204
 21
860.7560094132
 31
0.0
  0
LINE
  5
254
330
1F
100
AcDbEntity
  8
0
  6
Continuous
 62
     7
370
    25
100
AcDbLine
 10
513.6609846204
 20
860.7560094132
 30
0.0
 11
513.6609846204
 21
872.2560094132
 31
0.0
  0
ARC
  5
255
330
1F
100
AcDbEntity
  8
0
  6
Continuous
 62
     7
370
    25
100
AcDbCircle
 10
720.6609846204
 20
796.7560094132
 30
0.0
 40
3.249999999996427
100
AcDbArc
 50
8.8498830984
 51
171.1501169016
  0
ARC
  5
256
330
1F
100
AcDbEntity
  8
0
  6
Continuous
 62
     7
370
    25
100
AcDbCircle
 10
553.6609846204
 20
796.7560094132
 30
0.0
 40
1.999999999999976
100
AcDbArc
 50
14.4775121861
 51
165.5224878138
  0
ARC
  5
257
330
1F
100
AcDbEntity
  8
0
  6
Continuous
 62
     7
370
    25
100
AcDbCircle
 10
524.1609846204
 20
796.7560094132
 30
0.0
 40
1.999999999999976
100
AcDbArc
 50
14.4775121862
 51
165.5224878138
  0
LINE
  5
258
330
1F
100
AcDbEntity
  8
0
  6
Continuous
 62
     7
370
    25
100
AcDbLine
 10
513.6609846204
 20
797.2560094132
 30
0.0
 11
513.6609846204
 21
806.9560094132
 31
0.0
  0
ARC
  5
259
330
1F
100
AcDbEntity
  8
0
  6
Continuous
 62
     7
370
    25
100
AcDbCircle
 10
1173.1609846204
 20
796.7560094132
 30
0.0
 40
2.000000000000555
100
AcDbArc
 50
14.4775121862
 51
165.5224878136
  0
ARC
  5
25A
330
1F
100
AcDbEntity
  8
0
  6
Continuous
 62
     7
370
    25
100
AcDbCircle
 10
1153.6609846204
 20
796.7560094132
 30
0.0
 40
3.249999999999972
100
AcDbArc
 50
8.8498830987
 51
171.1501169013
  0
ARC
  5
25B
330
1F
100
AcDbEntity
  8
0
  6
Continuous
 62
     7
370
    25
100
AcDbCircle
 10
927.6609846204
 20
796.7560094132
 30
0.0
 40
3.249999999995944
100
AcDbArc
 50
8.8498830985
 51
171.1501169015
  0
ARC
  5
25C
330
1F
100
AcDbEntity
  8
0
  6
Continuous
 62
     7
370
    25
100
AcDbCircle
 10
860.6609846204
 20
796.7560094132
 30
0.0
 40
3.000000000000055
100
AcDbArc
 50
9.5940682269
 51
170.4059317731
  0
ARC
  5
25D
330
1F
100
AcDbEntity
  8
0
  6
Continuous
 62
     7
370
    25
100
AcDbCircle
 10
736.6609846204
 20
796.7560094132
 30
0.0
 40
3.000000000000302
100
AcDbArc
 50
9.5940682271
 51
170.4059317729
  0
LINE
  5
25E
330
1F
100
AcDbEntity
  8
0
  6
Continuous
 62
     7
370
    25
100
AcDbLine
 10
1183.6609846204
 20
806.9560094132
 30
0.0
 11
1183.6609846204
 21
797.2560094132
 31
0.0
  0
ARC
  5
25F
330
1F
100
AcDbEntity
  8
0
  6
Continuous
 62
     7
370
    25
100
AcDbCircle
 10
1173.1609846204
 20
796.7560094132
 30
0.0
 40
2.000000000000555
100
AcDbArc
 50
0.0000000001
 51
14.4775121862
  0
LINE
  5
260
330
1F
100
AcDbEntity
  8
0
  6
Continuous
 62
     7
370
    25
100
AcDbLine
 10
1183.6609846204
 20
796.7560094132
 30
0.0
 11
1183.6609846204
 21
797.2560094132
 31
0.0
  0
ARC
  5
261
330
1F
100
AcDbEntity
  8
0
  6
Continuous
 62
     7
370
    25
100
AcDbCircle
 10
1173.1609846204
 20
872.7560094132
 30
0.0
 40
2.00000000000009
100
AcDbArc
 50
345.5224878144
 51
0.0000000003
  0
LINE
  5
262
330
1F
100
AcDbEntity
  8
0
  6
Continuous
 62
     7
370
    25
100
AcDbLine
 10
1183.6609846204
 20
872.2560094132
 30
0.0
 11
1183.6609846204
 21
872.7560094132
 31
0.0
  0
ARC
  5
263
330
1F
100
AcDbEntity
  8
0
  6
Continuous
 62
     7
370
    25
100
AcDbCircle
 10
1173.1609846204
 20
872.7560094132
 30
0.0
 40
2.000000000000008
100
AcDbArc
 50
0.0000000003
 51
14.4775121862
  0
LINE
  5
264
330
1F
100
AcDbEntity
  8
0
  6
Continuous
 62
     7
370
    25
100
AcDbLine
 10
1183.6609846204
 20
872.7560094132
 30
0.0
 11
1183.6609846204
 21
873.2560094132
 31
0.0
  0
LINE
  5
265
330
1F
100
AcDbEntity
  8
0
  6
Continuous
 62
     7
370
    25
100
AcDbLine
 10
1183.6609846204
 20
860.7560094132
 30
0.0
 11
1183.6609846204
 21
860.2560094132
 31
0.0
  0
LINE
  5
266
330
1F
100
AcDbEntity
  8
0
  6
Continuous
 62
     7
370
    25
100
AcDbLine
 10
513.6609846204
 20
860.2560094132
 30
0.0
 11
513.6609846204
 21
860.7560094132
 31
0.0
  0
ARC
  5
267
330
1F
100
AcDbEntity
  8
0
  6
Continuous
 62
     7
370
    25
100
AcDbCircle
 10
524.1609846204
 20
796.7560094132
 30
0.0
 40
2.000000000000006
100
AcDbArc
 50
179.9999999998
 51
194.4775121859
  0
LINE
  5
268
330
1F
100
AcDbEntity
  8
0
  6
Continuous
 62
     7
370
    25
100
AcDbLine
 10
513.6609846204
 20
796.7560094132
 30
0.0
 11
513.6609846204
 21
796.2560094132
 31
0.0
  0
ARC
  5
269
330
1F
100
AcDbEntity
  8
0
  6
Continuous
 62
     7
370
    25
100
AcDbCircle
 10
927.6609846204
 20
796.7560094132
 30
0.0
 40
3.249999999995848
100
AcDbArc
 50
188.8498830984
 51
351.1501169016
  0
ARC
  5
26A
330
1F
100
AcDbEntity
  8
0
  6
Continuous
 62
     7
370
    25
100
AcDbCircle
 10
1153.6609846204
 20
796.7560094132
 30
0.0
 40
3.249999999999943
100
AcDbArc
 50
188.8498830983
 51
351.1501169018
  0
ARC
  5
26B
330
1F
100
AcDbEntity
  8
0
  6
Continuous
 62
     7
370
    25
100
AcDbCircle
 10
1173.1609846204
 20
796.7560094132
 30
0.0
 40
2.000000000000147
100
AcDbArc
 50
194.4775121873
 51
345.5224878127
  0
ARC
  5
26C
330
1F
100
AcDbEntity
  8
0
  6
Continuous
 62
     7
370
    25
100
AcDbCircle
 10
524.1609846204
 20
796.7560094132
 30
0.0
 40
2.000000000000035
100
AcDbArc
 50
194.4775121859
 51
345.5224878142
  0
ARC
  5
26D
330
1F
100
AcDbEntity
  8
0
  6
Continuous
 62
     7
370
    25
100
AcDbCircle
 10
553.6609846204
 20
796.7560094132
 30
0.0
 40
2.000000000000065
100
AcDbArc
 50
194.4775121858
 51
345.5224878144
  0
ARC
  5
26E
330
1F
100
AcDbEntity
  8
0
  6
Continuous
 62
     7
370
    25
100
AcDbCircle
 10
720.6609846204
 20
796.7560094132
 30
0.0
 40
3.249999999995961
100
AcDbArc
 50
188.8498830984
 51
351.1501169015
  0
ARC
  5
26F
330
1F
100
AcDbEntity
  8
0
  6
Continuous
 62
     7
370
    25
100
AcDbCircle
 10
736.6609846204
 20
796.7560094132
 30
0.0
 40
3.000000000000051
100
AcDbArc
 50
189.5940682268
 51
350.4059317733
  0
ARC
  5
270
330
1F
100
AcDbEntity
  8
0
  6
Continuous
 62
     7
370
    25
100
AcDbCircle
 10
860.6609846204
 20
796.7560094132
 30
0.0
 40
3.000000000000111
100
AcDbArc
 50
189.5940682269
 51
350.4059317731
  0
LINE
  5
271
330
1F
100
AcDbEntity
  8
0
  6
Continuous
 62
     7
370
    25
100
AcDbLine
 10
513.6609846204
 20
790.2560094132
 30
0.0
 11
513.6609846204
 21
796.2560094132
 31
0.0
  0
LINE
  5
272
330
1F
100
AcDbEntity
  8
0
  6
Continuous
 62
     7
370
    25
100
AcDbLine
 10
1183.6609846204
 20
796.2560094132
 30
0.0
 11
1183.6609846204
 21
790.2560094132
 31
0.0
  0
ARC
  5
273
330
1F
100
AcDbEntity
  8
0
  6
Continuous
 62
     7
370
    25
100
AcDbCircle
 10
1173.1609846204
 20
796.7560094132
 30
0.0
 40
2.000000000000147
100
AcDbArc
 50
345.5224878127
 51
0.0000000001
  0
LINE
  5
274
330
1F
100
AcDbEntity
  8
0
  6
Continuous
 62
     7
370
    25
100
AcDbLine
 10
1183.6609846204
 20
796.2560094132
 30
0.0
 11
1183.6609846204
 21
796.7560094132
 31
0.0
  0
ARC
  5
275
330
1F
100
AcDbEntity
  8
0
  6
Continuous
 62
     7
370
    25
100
AcDbCircle
 10
524.1609846204
 20
796.7560094132
 30
0.0
 40
2.000000000000004
100
AcDbArc
 50
165.5224878138
 51
179.9999999998
  0
LINE
  5
276
330
1F
100
AcDbEntity
  8
0
  6
Continuous
 62
     7
370
    25
100
AcDbLine
 10
513.6609846204
 20
797.2560094132
 30
0.0
 11
513.6609846204
 21
796.7560094132
 31
0.0
  0
LINE
  5
277
330
1F
100
AcDbEntity
  8
0
  6
Continuous
 62
     7
370
    25
100
AcDbLine
 10
1183.6609846204
 20
880.2560094132
 30
0.0
 11
513.6609846204
 21
880.2560094132
 31
0.0
  0
LINE
  5
278
330
1F
100
AcDbEntity
  8
0
  6
Continuous
 62
     7
370
    25
100
AcDbLine
 10
1183.6609846204
 20
879.2560094132
 30
0.0
 11
1183.6609846204
 21
880.2560094132
 31
0.0
  0
LINE
  5
279
330
1F
100
AcDbEntity
  8
0
  6
Continuous
 62
     7
370
    25
100
AcDbLine
 10
513.6609846204
 20
880.2560094132
 30
0.0
 11
513.6609846204
 21
879.2560094132
 31
0.0
  0
LINE
  5
27A
330
1F
100
AcDbEntity
  8
0
  6
Continuous
 62
     7
370
    25
100
AcDbLine
 10
513.6609846204
 20
789.2560094132
 30
0.0
 11
1183.6609846204
 21
789.2560094132
 31
0.0
  0
LINE
  5
27B
330
1F
100
AcDbEntity
  8
0
  6
Continuous
 62
     7
370
    25
100
AcDbLine
 10
513.6609846204
 20
790.2560094132
 30
0.0
 11
513.6609846204
 21
789.2560094132
 31
0.0
  0
LINE
  5
27C
330
1F
100
AcDbEntity
  8
0
  6
Continuous
 62
     7
370
    25
100
AcDbLine
 10
1183.6609846204
 20
789.2560094132
 30
0.0
 11
1183.6609846204
 21
790.2560094132
 31
0.0
  0
ARC
  5
27D
330
1F
100
AcDbEntity
  8
0
  6
Continuous
 62
     7
370
    25
100
AcDbCircle
 10
860.6609846204
 20
872.7560094132
 30
0.0
 40
3.000000000000415
100
AcDbArc
 50
170.4059317722
 51
180.0000000001
  0
ARC
  5
27E
330
1F
100
AcDbEntity
  8
0
  6
Continuous
 62
     7
370
    25
100
AcDbCircle
 10
736.6609846204
 20
872.7560094132
 30
0.0
 40
3.000000000000439
100
AcDbArc
 50
0.0000000001
 51
9.594068228
  0
ARC
  5
27F
330
1F
100
AcDbEntity
  8
0
  6
Continuous
 62
     7
370
    25
100
AcDbCircle
 10
1173.1609846204
 20
872.7560094132
 30
0.0
 40
2.000000000000007
100
AcDbArc
 50
165.5224878124
 51
179.9999999991
  0
ARC
  5
280
330
1F
100
AcDbEntity
  8
0
  6
Continuous
 62
     7
370
    25
100
AcDbCircle
 10
1153.6609846204
 20
872.7560094132
 30
0.0
 40
3.249999999999773
100
AcDbArc
 50
0.0000000005
 51
8.8498831004
  0
ARC
  5
281
330
1F
100
AcDbEntity
  8
0
  6
Continuous
 62
     7
370
    25
100
AcDbCircle
 10
927.6609846204
 20
872.7560094132
 30
0.0
 40
3.24999999999612
100
AcDbArc
 50
359.9999999999
 51
8.8498830993
  0
ARC
  5
282
330
1F
100
AcDbEntity
  8
0
  6
Continuous
 62
     7
370
    25
100
AcDbCircle
 10
1153.6609846204
 20
872.7560094132
 30
0.0
 40
3.25000000000033
100
AcDbArc
 50
171.1501169005
 51
179.9999999999
  0
ARC
  5
283
330
1F
100
AcDbEntity
  8
0
  6
Continuous
 62
     7
370
    25
100
AcDbCircle
 10
736.6609846204
 20
872.7560094132
 30
0.0
 40
2.999999999999984
100
AcDbArc
 50
170.4059317719
 51
179.9999999999
  0
ARC
  5
284
330
1F
100
AcDbEntity
  8
0
  6
Continuous
 62
     7
370
    25
100
AcDbCircle
 10
720.6609846204
 20
872.7560094132
 30
0.0
 40
3.249999999995794
100
AcDbArc
 50
359.9999999999
 51
8.8498830994
  0
ARC
  5
285
330
1F
100
AcDbEntity
  8
0
  6
Continuous
 62
     7
370
    25
100
AcDbCircle
 10
553.6609846204
 20
872.7560094132
 30
0.0
 40
2.00000000000012
100
AcDbArc
 50
165.5224878124
 51
180.0000000001
  0
ARC
  5
286
330
1F
100
AcDbEntity
  8
0
  6
Continuous
 62
     7
370
    25
100
AcDbCircle
 10
524.1609846204
 20
872.7560094132
 30
0.0
 40
2.00000000000001
100
AcDbArc
 50
359.9999999999
 51
14.4775121876
  0
ARC
  5
287
330
1F
100
AcDbEntity
  8
0
  6
Continuous
 62
     7
370
    25
100
AcDbCircle
 10
553.6609846204
 20
872.7560094132
 30
0.0
 40
2.000000000000657
100
AcDbArc
 50
0.0
 51
14.4775121877
  0
ARC
  5
288
330
1F
100
AcDbEntity
  8
0
  6
Continuous
 62
     7
370
    25
100
AcDbCircle
 10
720.6609846204
 20
872.7560094132
 30
0.0
 40
3.249999999996398
100
AcDbArc
 50
171.1501169005
 51
180.0
  0
ARC
  5
289
330
1F
100
AcDbEntity
  8
0
  6
Continuous
 62
     7
370
    25
100
AcDbCircle
 10
860.6609846204
 20
872.7560094132
 30
0.0
 40
3.000000000000528
100
AcDbArc
 50
360.0
 51
9.5940682278
  0
ARC
  5
28A
330
1F
100
AcDbEntity
  8
0
  6
Continuous
 62
     7
370
    25
100
AcDbCircle
 10
927.6609846204
 20
872.7560094132
 30
0.0
 40
3.249999999996232
100
AcDbArc
 50
171.1501169007
 51
180.0000000001
  0
ARC
  5
28B
330
1F
100
AcDbEntity
  8
0
  6
Continuous
 62
     7
370
    25
100
AcDbCircle
 10
1153.6609846204
 20
796.7560094132
 30
0.0
 40
3.250000000000031
100
AcDbArc
 50
351.1501169017
 51
0.0000000002
  0
ARC
  5
28C
330
1F
100
AcDbEntity
  8
0
  6
Continuous
 62
     7
370
    25
100
AcDbCircle
 10
1173.1609846204
 20
796.7560094132
 30
0.0
 40
2.0
100
AcDbArc
 50
179.9999999997
 51
194.4775121873
  0
ARC
  5
28D
330
1F
100
AcDbEntity
  8
0
  6
Continuous
 62
     7
370
    25
100
AcDbCircle
 10
860.6609846204
 20
796.7560094132
 30
0.0
 40
3.000000000000055
100
AcDbArc
 50
0.0
 51
9.5940682269
  0
ARC
  5
28E
330
1F
100
AcDbEntity
  8
0
  6
Continuous
 62
     7
370
    25
100
AcDbCircle
 10
927.6609846204
 20
796.7560094132
 30
0.0
 40
3.249999999995907
100
AcDbArc
 50
171.1501169015
 51
180.0
  0
ARC
  5
28F
330
1F
100
AcDbEntity
  8
0
  6
Continuous
 62
     7
370
    25
100
AcDbCircle
 10
1153.6609846204
 20
796.7560094132
 30
0.0
 40
3.249999999999885
100
AcDbArc
 50
0.0000000002
 51
8.8498830987
  0
ARC
  5
290
330
1F
100
AcDbEntity
  8
0
  6
Continuous
 62
     7
370
    25
100
AcDbCircle
 10
1173.1609846204
 20
796.7560094132
 30
0.0
 40
2.0
100
AcDbArc
 50
165.5224878136
 51
179.9999999997
  0
ARC
  5
291
330
1F
100
AcDbEntity
  8
0
  6
Continuous
 62
     7
370
    25
100
AcDbCircle
 10
553.6609846204
 20
796.7560094132
 30
0.0
 40
2.0
100
AcDbArc
 50
0.0000000001
 51
14.4775121861
  0
ARC
  5
292
330
1F
100
AcDbEntity
  8
0
  6
Continuous
 62
     7
370
    25
100
AcDbCircle
 10
720.6609846204
 20
796.7560094132
 30
0.0
 40
3.249999999996322
100
AcDbArc
 50
171.1501169016
 51
180.0000000001
  0
ARC
  5
293
330
1F
100
AcDbEntity
  8
0
  6
Continuous
 62
     7
370
    25
100
AcDbCircle
 10
860.6609846204
 20
796.7560094132
 30
0.0
 40
2.999999999999943
100
AcDbArc
 50
170.4059317731
 51
180.0
  0
ARC
  5
294
330
1F
100
AcDbEntity
  8
0
  6
Continuous
 62
     7
370
    25
100
AcDbCircle
 10
736.6609846204
 20
796.7560094132
 30
0.0
 40
3.000000000000127
100
AcDbArc
 50
0.0000000001
 51
9.5940682272
  0
ARC
  5
295
330
1F
100
AcDbEntity
  8
0
  6
Continuous
 62
     7
370
    25
100
AcDbCircle
 10
927.6609846204
 20
796.7560094132
 30
0.0
 40
3.249999999995794
100
AcDbArc
 50
360.0
 51
8.8498830985
  0
ARC
  5
296
330
1F
100
AcDbEntity
  8
0
  6
Continuous
 62
     7
370
    25
100
AcDbCircle
 10
1153.6609846204
 20
796.7560094132
 30
0.0
 40
3.25
100
AcDbArc
 50
171.1501169013
 51
179.9999999998
  0
ARC
  5
297
330
1F
100
AcDbEntity
  8
0
  6
Continuous
 62
     7
370
    25
100
AcDbCircle
 10
736.6609846204
 20
796.7560094132
 30
0.0
 40
3.000000000000322
100
AcDbArc
 50
170.4059317729
 51
180.0
  0
ARC
  5
298
330
1F
100
AcDbEntity
  8
0
  6
Continuous
 62
     7
370
    25
100
AcDbCircle
 10
720.6609846204
 20
796.7560094132
 30
0.0
 40
3.249999999996098
100
AcDbArc
 50
359.9999999999
 51
8.8498830984
  0
ARC
  5
299
330
1F
100
AcDbEntity
  8
0
  6
Continuous
 62
     7
370
    25
100
AcDbCircle
 10
736.6609846204
 20
872.7560094132
 30
0.0
 40
3.000000000000031
100
AcDbArc
 50
179.9999999999
 51
189.5940682267
  0
ARC
  5
29A
330
1F
100
AcDbEntity
  8
0
  6
Continuous
 62
     7
370
    25
100
AcDbCircle
 10
720.6609846204
 20
872.7560094132
 30
0.0
 40
3.249999999996023
100
AcDbArc
 50
351.1501169015
 51
359.9999999999
  0
ARC
  5
29B
330
1F
100
AcDbEntity
  8
0
  6
Continuous
 62
     7
370
    25
100
AcDbCircle
 10
860.6609846204
 20
872.7560094132
 30
0.0
 40
3.000000000000055
100
AcDbArc
 50
350.4059317731
 51
360.0
  0
ARC
  5
29C
330
1F
100
AcDbEntity
  8
0
  6
Continuous
 62
     7
370
    25
100
AcDbCircle
 10
927.6609846204
 20
872.7560094132
 30
0.0
 40
3.249999999996023
100
AcDbArc
 50
180.0000000001
 51
188.8498830985
  0
ARC
  5
29D
330
1F
100
AcDbEntity
  8
0
  6
Continuous
 62
     7
370
    25
100
AcDbCircle
 10
1173.1609846204
 20
872.7560094132
 30
0.0
 40
2.0
100
AcDbArc
 50
179.9999999991
 51
194.4775121856
  0
ARC
  5
29E
330
1F
100
AcDbEntity
  8
0
  6
Continuous
 62
     7
370
    25
100
AcDbCircle
 10
1153.6609846204
 20
872.7560094132
 30
0.0
 40
3.250000000000238
100
AcDbArc
 50
351.1501169017
 51
0.0000000005
  0
ARC
  5
29F
330
1F
100
AcDbEntity
  8
0
  6
Continuous
 62
     7
370
    25
100
AcDbCircle
 10
553.6609846204
 20
872.7560094132
 30
0.0
 40
1.999999999999886
100
AcDbArc
 50
180.0000000001
 51
194.4775121861
  0
ARC
  5
2A0
330
1F
100
AcDbEntity
  8
0
  6
Continuous
 62
     7
370
    25
100
AcDbCircle
 10
524.1609846204
 20
872.7560094132
 30
0.0
 40
2.0
100
AcDbArc
 50
345.5224878139
 51
359.9999999999
  0
ARC
  5
2A1
330
1F
100
AcDbEntity
  8
0
  6
Continuous
 62
     7
370
    25
100
AcDbCircle
 10
927.6609846204
 20
872.7560094132
 30
0.0
 40
3.249999999996023
100
AcDbArc
 50
351.1501169015
 51
359.9999999999
  0
ARC
  5
2A2
330
1F
100
AcDbEntity
  8
0
  6
Continuous
 62
     7
370
    25
100
AcDbCircle
 10
1153.6609846204
 20
872.7560094132
 30
0.0
 40
3.250000000000013
100
AcDbArc
 50
179.9999999999
 51
188.8498830983
  0
ARC
  5
2A3
330
1F
100
AcDbEntity
  8
0
  6
Continuous
 62
     7
370
    25
100
AcDbCircle
 10
553.6609846204
 20
872.7560094132
 30
0.0
 40
2.000000000000006
100
AcDbArc
 50
345.5224878141
 51
0.0
  0
ARC
  5
2A4
330
1F
100
AcDbEntity
  8
0
  6
Continuous
 62
     7
370
    25
100
AcDbCircle
 10
720.6609846204
 20
872.7560094132
 30
0.0
 40
3.249999999996136
100
AcDbArc
 50
180.0
 51
188.8498830985
  0
ARC
  5
2A5
330
1F
100
AcDbEntity
  8
0
  6
Continuous
 62
     7
370
    25
100
AcDbCircle
 10
860.6609846204
 20
872.7560094132
 30
0.0
 40
2.999999999999943
100
AcDbArc
 50
180.0000000001
 51
189.5940682269
  0
ARC
  5
2A6
330
1F
100
AcDbEntity
  8
0
  6
Continuous
 62
     7
370
    25
100
AcDbCircle
 10
736.6609846204
 20
872.7560094132
 30
0.0
 40
3.000000000000114
100
AcDbArc
 50
350.4059317733
 51
0.0000000001
  0
LINE
  5
2A7
330
1F
100
AcDbEntity
  8
0
  6
Continuous
 62
     7
370
    25
100
AcDbLine
 10
513.6609846204
 20
807.2560094132
 30
0.0
 11
513.6609846204
 21
806.9560094132
 31
0.0
  0
LINE
  5
2A8
330
1F
100
AcDbEntity
  8
0
  6
Continuous
 62
     7
370
    25
100
AcDbLine
 10
1183.6609846204
 20
806.9560094132
 30
0.0
 11
1183.6609846204
 21
807.2560094132
 31
0.0
  0
ARC
  5
2A9
330
1F
100
AcDbEntity
  8
0
  6
Continuous
 62
     7
370
    25
100
AcDbCircle
 10
860.6609846204
 20
796.7560094132
 30
0.0
 40
3.0
100
AcDbArc
 50
180.0
 51
189.5940682269
  0
ARC
  5
2AA
330
1F
100
AcDbEntity
  8
0
  6
Continuous
 62
     7
370
    25
100
AcDbCircle
 10
736.6609846204
 20
796.7560094132
 30
0.0
 40
3.000000000000114
100
AcDbArc
 50
350.4059317733
 51
0.0000000001
  0
ARC
  5
2AB
330
1F
100
AcDbEntity
  8
0
  6
Continuous
 62
     7
370
    25
100
AcDbCircle
 10
553.6609846204
 20
796.7560094132
 30
0.0
 40
1.999999999999995
100
AcDbArc
 50
179.9999999999
 51
194.4775121858
  0
ARC
  5
2AC
330
1F
100
AcDbEntity
  8
0
  6
Continuous
 62
     7
370
    25
100
AcDbCircle
 10
524.1609846204
 20
796.7560094132
 30
0.0
 40
2.0
100
AcDbArc
 50
345.5224878142
 51
0.0000000001
  0
ARC
  5
2AD
330
1F
100
AcDbEntity
  8
0
  6
Continuous
 62
     7
370
    25
100
AcDbCircle
 10
553.6609846204
 20
796.7560094132
 30
0.0
 40
2.000000000000037
100
AcDbArc
 50
345.5224878144
 51
0.0000000001
  0
ARC
  5
2AE
330
1F
100
AcDbEntity
  8
0
  6
Continuous
 62
     7
370
    25
100
AcDbCircle
 10
720.6609846204
 20
796.7560094132
 30
0.0
 40
3.249999999996065
100
AcDbArc
 50
180.0000000001
 51
188.8498830985
  0
ARC
  5
2AF
330
1F
100
AcDbEntity
  8
0
  6
Continuous
 62
     7
370
    25
100
AcDbCircle
 10
860.6609846204
 20
796.7560094132
 30
0.0
 40
3.000000000000111
100
AcDbArc
 50
350.4059317731
 51
0.0
  0
ARC
  5
2B0
330
1F
100
AcDbEntity
  8
0
  6
Continuous
 62
     7
370
    25
100
AcDbCircle
 10
927.6609846204
 20
796.7560094132
 30
0.0
 40
3.249999999995988
100
AcDbArc
 50
180.0
 51
188.8498830985
  0
ARC
  5
2B1
330
1F
100
AcDbEntity
  8
0
  6
Continuous
 62
     7
370
    25
100
AcDbCircle
 10
927.6609846204
 20
796.7560094132
 30
0.0
 40
3.249999999995988
100
AcDbArc
 50
351.1501169015
 51
360.0
  0
ARC
  5
2B2
330
1F
100
AcDbEntity
  8
0
  6
Continuous
 62
     7
370
    25
100
AcDbCircle
 10
1153.6609846204
 20
796.7560094132
 30
0.0
 40
3.250000000000031
100
AcDbArc
 50
179.9999999998
 51
188.8498830983
  0
ARC
  5
2B3
330
1F
100
AcDbEntity
  8
0
  6
Continuous
 62
     7
370
    25
100
AcDbCircle
 10
553.6609846204
 20
796.7560094132
 30
0.0
 40
2.000000000000004
100
AcDbArc
 50
165.5224878138
 51
179.9999999999
  0
ARC
  5
2B4
330
1F
100
AcDbEntity
  8
0
  6
Continuous
 62
     7
370
    25
100
AcDbCircle
 10
524.1609846204
 20
796.7560094132
 30
0.0
 40
2.000000000000004
100
AcDbArc
 50
0.0000000001
 51
14.4775121862
  0
ARC
  5
2B5
330
1F
100
AcDbEntity
  8
0
  6
Continuous
 62
     7
370
    25
100
AcDbCircle
 10
736.6609846204
 20
796.7560094132
 30
0.0
 40
3.000000000000114
100
AcDbArc
 50
180.0
 51
189.5940682268
  0
ARC
  5
2B6
330
1F
100
AcDbEntity
  8
0
  6
Continuous
 62
     7
370
    25
100
AcDbCircle
 10
720.6609846204
 20
796.7560094132
 30
0.0
 40
3.249999999995954
100
AcDbArc
 50
351.1501169015
 51
359.9999999999
  0
ARC
  5
2B7
330
1F
100
AcDbEntity
  8
0
  6
Continuous
 62
     7
370
    25
100
AcDbCircle
 10
536.6609846204
 20
853.2560094132
 30
0.0
 40
5.000000000004889
100
AcDbArc
 50
0.0000000002
 51
90.0
  0
LINE
  5
2B8
330
1F
100
AcDbEntity
  8
0
  6
Continuous
 62
     7
370
    25
100
AcDbLine
 10
513.6609846204
 20
858.2560094132
 30
0.0
 11
536.6609846204
 21
858.2560094132
 31
0.0
  0
LINE
  5
2B9
330
1F
100
AcDbEntity
  8
0
  6
Continuous
 62
     7
370
    25
100
AcDbLine
 10
1160.6609846204
 20
858.2560094132
 30
0.0
 11
1183.6609846204
 21
858.2560094132
 31
0.0
  0
ARC
  5
2BA
330
1F
100
AcDbEntity
  8
0
  6
Continuous
 62
     7
370
    25
100
AcDbCircle
 10
1160.6609846204
 20
853.2560094132
 30
0.0
 40
5.0
100
AcDbArc
 50
90.0
 51
180.0000000001
  0
LINE
  5
2BB
330
1F
100
AcDbEntity
  8
0
  6
Continuous
 62
     7
370
    25
100
AcDbLine
 10
1155.6609846204
 20
853.2560094132
 30
0.0
 11
1155.6609846204
 21
847.4521618359
 31
0.0
  0
LINE
  5
2BC
330
1F
100
AcDbEntity
  8
0
  6
Continuous
 62
     7
370
    25
100
AcDbLine
 10
541.6609846204
 20
847.4521618359
 30
0.0
 11
541.6609846204
 21
853.2560094132
 31
0.0
  0
LINE
  5
2BD
330
1F
100
AcDbEntity
  8
0
  6
Continuous
 62
     7
370
    25
100
AcDbLine
 10
1183.6609846204
 20
858.2560094132
 30
0.0
 11
1183.6609846204
 21
860.2560094132
 31
0.0
  0
LINE
  5
2BE
330
1F
100
AcDbEntity
  8
0
  6
Continuous
 62
     7
370
    25
100
AcDbLine
 10
513.6609846204
 20
860.2560094132
 30
0.0
 11
513.6609846204
 21
858.2560094132
 31
0.0
  0
LINE
  5
2BF
330
1F
100
AcDbEntity
  8
0
  6
Continuous
 62
     7
370
    25
100
AcDbLine
 10
1155.6609846204
 20
847.4521618359
 30
0.0
 11
1155.6609846204
 21
843.122034817
 31
0.0
  0
LINE
  5
2C0
330
1F
100
AcDbEntity
  8
0
  6
Continuous
 62
     7
370
    25
100
AcDbLine
 10
541.6609846204
 20
843.122034817
 30
0.0
 11
541.6609846204
 21
847.4521618359
 31
0.0
  0
LINE
  5
2C1
330
1F
100
AcDbEntity
  8
0
  6
Continuous
 62
     7
370
    25
100
AcDbLine
 10
1155.6609846204
 20
843.122034817
 30
0.0
 11
1155.6609846204
 21
840.6682961729
 31
0.0
  0
LINE
  5
2C2
330
1F
100
AcDbEntity
  8
0
  6
Continuous
 62
     7
370
    25
100
AcDbLine
 10
541.6609846204
 20
840.6682961729
 30
0.0
 11
541.6609846204
 21
843.122034817
 31
0.0
  0
LINE
  5
2C3
330
1F
100
AcDbEntity
  8
0
  6
Continuous
 62
     7
370
    25
100
AcDbLine
 10
1155.6609846204
 20
840.6682961729
 30
0.0
 11
1155.6609846204
 21
839.3692580672
 31
0.0
  0
LINE
  5
2C4
330
1F
100
AcDbEntity
  8
0
  6
Continuous
 62
     7
370
    25
100
AcDbLine
 10
541.6609846204
 20
839.3692580672
 30
0.0
 11
541.6609846204
 21
840.6682961729
 31
0.0
  0
LINE
  5
2C5
330
1F
100
AcDbEntity
  8
0
  6
Continuous
 62
     7
370
    25
100
AcDbLine
 10
513.6609846204
 20
811.2560094132
 30
0.0
 11
536.6609846204
 21
811.2560094132
 31
0.0
  0
ARC
  5
2C6
330
1F
100
AcDbEntity
  8
0
  6
Continuous
 62
     7
370
    25
100
AcDbCircle
 10
536.6609846204
 20
816.2560094132
 30
0.0
 40
5.0
100
AcDbArc
 50
270.0
 51
359.9999999999
  0
ARC
  5
2C7
330
1F
100
AcDbEntity
  8
0
  6
Continuous
 62
     7
370
    25
100
AcDbCircle
 10
1160.6609846204
 20
816.2560094132
 30
0.0
 40
5.000000000011028
100
AcDbArc
 50
180.0000000003
 51
270.0
  0
LINE
  5
2C8
330
1F
100
AcDbEntity
  8
0
  6
Continuous
 62
     7
370
    25
100
AcDbLine
 10
1160.6609846204
 20
811.2560094132
 30
0.0
 11
1183.6609846204
 21
811.2560094132
 31
0.0
  0
LINE
  5
2C9
330
1F
100
AcDbEntity
  8
0
  6
Continuous
 62
     7
370
    25
100
AcDbLine
 10
1155.6609846204
 20
839.3692580672
 30
0.0
 11
1155.6609846204
 21
816.2560094132
 31
0.0
  0
LINE
  5
2CA
330
1F
100
AcDbEntity
  8
0
  6
Continuous
 62
     7
370
    25
100
AcDbLine
 10
541.6609846204
 20
816.2560094132
 30
0.0
 11
541.6609846204
 21
839.3692580672
 31
0.0
  0
LINE
  5
2CB
330
1F
100
AcDbEntity
  8
0
  6
Continuous
 62
     7
370
    25
100
AcDbLine
 10
513.6609846204
 20
807.2560094132
 30
0.0
 11
513.6609846204
 21
811.2560094132
 31
0.0
  0
LINE
  5
2CC
330
1F
100
AcDbEntity
  8
0
  6
Continuous
 62
     7
370
    25
100
AcDbLine
 10
1183.6609846204
 20
811.2560094132
 30
0.0
 11
1183.6609846204
 21
807.2560094132
 31
0.0
  0
CIRCLE
  5
2CD
330
1F
100
AcDbEntity
  8
0
  6
Continuous
 62
     7
370
    25
100
AcDbCircle
 10
1225.6609846204
 20
743.5060094136
 30
0.0
 40
2.5
  0
CIRCLE
  5
2CE
330
1F
100
AcDbEntity
  8
0
  6
Continuous
 62
     7
370
    25
100
AcDbCircle
 10
592.6609846204
 20
743.5060094136
 30
0.0
 40
2.5
  0
LINE
  5
2CF
330
1F
100
AcDbEntity
  8
0
  6
Continuous
 62
     7
370
    25
100
AcDbLine
 10
1478.6609846204
 20
760.7560094136
 30
0.0
 11
528.6609846204
 21
760.7560094136
 31
0.0
  0
LINE
  5
2D0
330
1F
100
AcDbEntity
  8
0
  6
Continuous
 62
     7
370
    25
100
AcDbLine
 10
1478.6609846204
 20
465.7560094136
 30
0.0
 11
1478.6609846204
 21
760.7560094136
 31
0.0
  0
LINE
  5
2D1
330
1F
100
AcDbEntity
  8
0
  6
Continuous
 62
     7
370
    25
100
AcDbLine
 10
528.6609846204
 20
465.7560094136
 30
0.0
 11
1478.6609846204
 21
465.7560094136
 31
0.0
  0
LINE
  5
2D2
330
1F
100
AcDbEntity
  8
0
  6
Continuous
 62
     7
370
    25
100
AcDbLine
 10
528.6609846204
 20
760.7560094136
 30
0.0
 11
528.6609846204
 21
465.7560094136
 31
0.0
  0
LINE
  5
2D3
330
1F
100
AcDbEntity
  8
0
  6
Continuous
 62
     7
370
    25
100
AcDbLine
 10
1483.6609846204
 20
465.7560094136
 30
0.0
 11
1478.6609846204
 21
465.7560094136
 31
0.0
  0
LINE
  5
2D4
330
1F
100
AcDbEntity
  8
0
  6
Continuous
 62
     7
370
    25
100
AcDbLine
 10
528.6609846204
 20
465.7560094136
 30
0.0
 11
523.6609846204
 21
465.7560094136
 31
0.0
  0
LINE
  5
2D5
330
1F
100
AcDbEntity
  8
0
  6
Continuous
 62
     7
370
    25
100
AcDbLine
 10
1483.6609846204
 20
465.7560094136
 30
0.0
 11
1483.6609846204
 21
765.7560094136
 31
0.0
  0
LINE
  5
2D6
330
1F
100
AcDbEntity
  8
0
  6
Continuous
 62
     7
370
    25
100
AcDbLine
 10
1483.6609846204
 20
765.7560094136
 30
0.0
 11
523.6609846204
 21
765.7560094136
 31
0.0
  0
LINE
  5
2D7
330
1F
100
AcDbEntity
  8
0
  6
Continuous
 62
     7
370
    25
100
AcDbLine
 10
1603.6609846204
 20
965.7560094136
 30
0.0
 11
403.6609846204
 21
965.7560094136
 31
0.0
  0
LINE
  5
2D8
330
1F
100
AcDbEntity
  8
0
  6
Continuous
 62
     7
370
    25
100
AcDbLine
 10
1483.6609846204
 20
465.7560094136
 30
0.0
 11
1603.6609846204
 21
465.7560094136
 31
0.0
  0
LINE
  5
2D9
330
1F
100
AcDbEntity
  8
0
  6
Continuous
 62
     7
370
    25
100
AcDbLine
 10
523.6609846204
 20
765.7560094136
 30
0.0
 11
523.6609846204
 21
465.7560094136
 31
0.0
  0
LINE
  5
2DA
330
1F
100
AcDbEntity
  8
0
  6
Continuous
 62
     7
370
    25
100
AcDbLine
 10
1603.6609846204
 20
465.7560094136
 30
0.0
 11
1603.6609846204
 21
965.7560094136
 31
0.0
  0
CIRCLE
  5
2DB
330
1F
100
AcDbEntity
  8
0
  6
Continuous
 62
     7
370
    25
100
AcDbCircle
 10
527.6609846204
 20
823.7560094136
 30
0.0
 40
10.0
  0
CIRCLE
  5
2DC
330
1F
100
AcDbEntity
  8
0
  6
Continuous
 62
     7
370
    25
100
AcDbCircle
 10
1169.6609846204
 20
847.7560094136
 30
0.0
 40
10.0
  0
CIRCLE
  5
2DD
330
1F
100
AcDbEntity
  8
0
  6
Continuous
 62
     7
370
    25
100
AcDbCircle
 10
1169.6609846204
 20
823.7560094136
 30
0.0
 40
10.0
  0
CIRCLE
  5
2DE
330
1F
100
AcDbEntity
  8
0
  6
Continuous
 62
     7
370
    25
100
AcDbCircle
 10
527.6609846204
 20
847.7560094136
 30
0.0
 40
10.0
  0
LINE
  5
2DF
330
1F
100
AcDbEntity
  8
0
  6
Continuous
 62
     7
370
    25
100
AcDbLine
 10
403.6609846204
 20
965.7560094136
 30
0.0
 11
403.6609846204
 21
465.7560094136
 31
0.0
  0
LINE
  5
2E0
330
1F
100
AcDbEntity
  8
0
  6
Continuous
 62
     7
370
    25
100
AcDbLine
 10
403.6609846204
 20
465.7560094136
 30
0.0
 11
523.6609846204
 21
465.7560094136
 31
0.0
  0
DIMENSION
  5
2E1
330
1F
100
AcDbEntity
  8
FORMAT
100
AcDbDimension
  2
_D_5
 10
1225.6609846204
 20
605.0961098519
 30
0.0
 11
909.1609846204
 21
605.0961098519
 31
0.0
 70
   160
  1
<>
 71
     2
 42
-1.0
  3
SLDDIMSTYLE0
100
AcDbAlignedDimension
 13
592.6609846204
 23
738.5060094136
 33
0.0
 14
1225.6609846204
 24
738.5060094136
 34
0.0
100
AcDbRotatedDimension
  0
DIMENSION
  5
2EB
330
1F
100
AcDbEntity
  8
FORMAT
100
AcDbDimension
  2
_D_6
 10
1226.1227416358
 20
880.2560094132
 30
0.0
 11
1226.1227416358
 21
834.7560094132
 31
0.0
 70
   160
  1
<>
 71
     2
 42
-1.0
  3
SLDDIMSTYLE0
100
AcDbAlignedDimension
 13
1183.6609846204
 23
789.2560094132
 33
0.0
 14
1183.6609846204
 24
880.2560094132
 34
0.0
 50
90.0
100
AcDbRotatedDimension
  0
DIMENSION
  5
2F5
330
1F
100
AcDbEntity
  8
FORMAT
100
AcDbDimension
  2
_D_7
 10
592.6609846204
 20
605.0961098519
 30
0.0
 11
548.1609846204
 21
605.0961098519
 31
0.0
 70
   160
  1
<>
 71
     2
 42
-1.0
  3
SLDDIMSTYLE0
100
AcDbAlignedDimension
 13
503.6609846204
 23
630.7560094136
 33
0.0
 14
592.6609846204
 24
738.5060094136
 34
0.0
100
AcDbRotatedDimension
  0
DIMENSION
  5
2FE
330
1F
100
AcDbEntity
  8
FORMAT
100
AcDbDimension
  2
_D_8
 10
513.6609846204
 20
983.7623354139
 30
0.0
 11
460.2149396031
 21
983.7623354139
 31
0.0
 70
   160
  1
<>
 71
     2
 42
-1.0
  3
SLDDIMSTYLE1
100
AcDbAlignedDimension
 13
503.6609846204
 23
630.7560094136
 33
0.0
 14
513.6609846204
 24
807.2560094132
 34
0.0
100
AcDbRotatedDimension
  0
DIMENSION
  5
30A
330
1F
100
AcDbEntity
  8
FORMAT
100
AcDbDimension
  2
_D_9
 10
527.6609846204
 20
1035.7560094136
 30
0.0
 11
460.2149396031
 21
1035.7560094136
 31
0.0
 70
   160
  1
<>
 71
     2
 42
-1.0
  3
SLDDIMSTYLE1
100
AcDbAlignedDimension
 13
503.6609846204
 23
630.7560094136
 33
0.0
 14
527.6609846204
 24
860.2560094136
 34
0.0
100
AcDbRotatedDimension
  0
DIMENSION
  5
316
330
1F
100
AcDbEntity
  8
FORMAT
100
AcDbDimension
  2
_D_10
 10
720.6609846204
 20
1077.7560094136
 30
0.0
 11
612.1609846204
 21
1077.7560094136
 31
0.0
 70
   160
  1
<>
 71
     2
 42
-1.0
  3
SLDDIMSTYLE0
100
AcDbAlignedDimension
 13
503.6609846204
 23
630.7560094136
 33
0.0
 14
720.6609846204
 24
872.7560094132
 34
0.0
100
AcDbRotatedDimension
  0
DIMENSION
  5
320
330
1F
100
AcDbEntity
  8
FORMAT
100
AcDbDimension
  2
_D_11
 10
927.6609846204
 20
1077.7560094136
 30
0.0
 11
824.1609846204
 21
1077.7560094136
 31
0.0
 70
   160
  1
<>
 71
     2
 42
-1.0
  3
SLDDIMSTYLE0
100
AcDbAlignedDimension
 13
720.6609846204
 23
872.7560094132
 33
0.0
 14
927.6609846204
 24
872.7560094132
 34
0.0
100
AcDbRotatedDimension
  0
DIMENSION
  5
32A
330
1F
100
AcDbEntity
  8
FORMAT
100
AcDbDimension
  2
_D_12
 10
1153.6609846204
 20
1077.7560094136
 30
0.0
 11
1040.6609846204
 21
1077.7560094136
 31
0.0
 70
   160
  1
<>
 71
     2
 42
-1.0
  3
SLDDIMSTYLE0
100
AcDbAlignedDimension
 13
927.6609846204
 23
872.7560094132
 33
0.0
 14
1153.6609846204
 24
872.7560094132
 34
0.0
 50
0.0
100
AcDbRotatedDimension
  0
DIMENSION
  5
334
330
1F
100
AcDbEntity
  8
FORMAT
100
AcDbDimension
  2
_D_13
 10
1169.6609846204
 20
1119.7560094136
 30
0.0
 11
836.6609846204
 21
1119.7560094136
 31
0.0
 70
   160
  1
<>
 71
     2
 42
-1.0
  3
SLDDIMSTYLE0
100
AcDbAlignedDimension
 13
503.6609846204
 23
630.7560094136
 33
0.0
 14
1169.6609846204
 24
860.2560094136
 34
0.0
100
AcDbRotatedDimension
  0
DIMENSION
  5
33E
330
1F
100
AcDbEntity
  8
FORMAT
100
AcDbDimension
  2
_D_14
 10
1183.6609846204
 20
1161.7560094136
 30
0.0
 11
843.6609846204
 21
1161.7560094136
 31
0.0
 70
   160
  1
<>
 71
     2
 42
-1.0
  3
SLDDIMSTYLE0
100
AcDbAlignedDimension
 13
503.6609846204
 23
630.7560094136
 33
0.0
 14
1183.6609846204
 24
872.7560094132
 34
0.0
100
AcDbRotatedDimension
  0
DIMENSION
  5
348
330
1F
100
AcDbEntity
  8
FORMAT
100
AcDbDimension
  2
_D_15
 10
383.8091611089
 20
789.2560094132
 30
0.0
 11
383.8091611089
 21
698.7826706051
 31
0.0
 70
   160
  1
<>
 71
     2
 42
-1.0
  3
SLDDIMSTYLE2
100
AcDbAlignedDimension
 13
523.6609846204
 23
765.7560094136
 33
0.0
 14
513.6609846204
 24
789.2560094132
 34
0.0
 50
90.0
100
AcDbRotatedDimension
  0
DIMENSION
  5
355
330
1F
100
AcDbEntity
  8
FORMAT
100
AcDbDimension
  2
_D_16
 10
340.4422346831
 20
823.7560094136
 30
0.0
 11
340.4422346831
 21
698.782670605
 31
0.0
 70
   160
  1
<>
 71
     2
 42
-1.0
  3
SLDDIMSTYLE2
100
AcDbAlignedDimension
 13
513.6609846204
 23
789.2560094132
 33
0.0
 14
515.1609846204
 24
823.7560094136
 34
0.0
 50
90.0
100
AcDbRotatedDimension
  0
DIMENSION
  5
362
330
1F
100
AcDbEntity
  8
FORMAT
100
AcDbDimension
  2
_D_17
 10
295.2220208033
 20
847.7560094136
 30
0.0
 11
295.2220208033
 21
698.782670605
 31
0.0
 70
   160
  1
<>
 71
     2
 42
-1.0
  3
SLDDIMSTYLE1
100
AcDbAlignedDimension
 13
515.1609846204
 23
823.7560094136
 33
0.0
 14
515.1609846204
 24
847.7560094136
 34
0.0
 50
90.0
100
AcDbRotatedDimension
  0
DIMENSION
  5
370
330
1F
100
AcDbEntity
  8
FORMAT
100
AcDbDimension
  2
_D_18
 10
705.202271621
 20
796.7560094132
 30
0.0
 11
705.202271621
 21
719.0703185108
 31
0.0
 70
   160
  1
<>
 71
     2
 42
-1.0
  3
SLDDIMSTYLE1
100
AcDbAlignedDimension
 13
523.6609846204
 23
765.7560094136
 33
0.0
 14
720.6609846204
 24
796.7560094132
 34
0.0
 50
90.0
100
AcDbRotatedDimension
  0
DIMENSION
  5
37B
330
1F
100
AcDbEntity
  8
FORMAT
100
AcDbDimension
  2
_D_19
 10
1272.6208568014
 20
743.5060094136
 30
0.0
 11
1272.6208568014
 21
695.1380187487
 31
0.0
 70
   160
  1
<>
 71
     2
 42
-1.0
  3
SLDDIMSTYLE2
100
AcDbAlignedDimension
 13
1483.6609846204
 23
765.7560094136
 33
0.0
 14
1230.6609846204
 24
743.5060094136
 34
0.0
 50
90.0
100
AcDbRotatedDimension
  0
MTEXT
  5
386
330
1F
100
AcDbEntity
  8
FORMAT
100
AcDbMText
 10
1345.2824751715
 20
848.6013053843
 30
0.0
 40
18.5208333333
 41
0.0
 71
     1
 72
     1
  1
Unterkante Türrahmen
  7
SLDTEXTSTYLE0
 73
     1
 44
1.0
  0
LEADER
  5
388
330
1F
100
AcDbEntity
  8
FORMAT
100
AcDbLeader
  3
SLDDIMSTYLE3
 76
     3
 10
1297.0636977967
 20
765.7560094136
 30
0.0
 10
1297.1883067896
 20
839.3126061032
 30
0.0
 10
1341.6383067896
 20
839.3126061032
 30
0.0
  0
MTEXT
  5
389
330
1F
100
AcDbEntity
  8
FORMAT
100
AcDbMText
 10
1404.121715141
 20
1031.6723036008
 30
0.0
 40
18.5208333333
 41
0.0
 71
     1
 72
     1
  1
ø20 (optional)
  7
SLDTEXTSTYLE0
 73
     1
 44
1.0
  0
LEADER
  5
38A
330
1F
100
AcDbEntity
  8
FORMAT
100
AcDbLeader
  3
SLDDIMSTYLE3
 76
     3
 10
1179.0966555429
 20
851.0678237566
 30
0.0
 10
1355.8639145013
 20
1022.3805021636
 30
0.0
 10
1400.3139145013
 20
1022.3805021636
 30
0.0
  0
INSERT
  5
390
102
{ACAD_REACTORS
330
391
102
}
330
1F
100
AcDbEntity
  8
FORMAT
100
AcDbBlockReference
  2
SW_NOTE_0_5
 10
397.9334239192
 20
974.2774234148
 30
0.0
  0
LEADER
  5
391
330
1F
100
AcDbEntity
  8
FORMAT
100
AcDbLeader
  3
SLDDIMSTYLE3
 73
     2
 76
     3
 10
519.6528537285
 20
853.7451528931
 30
0.0
 10
442.3834239192
 20
974.2774234148
 30
0.0
 10
397.9334239192
 20
974.2774234148
 30
0.0
340
390
  0
INSERT
  5
39D
330
1F
100
AcDbEntity
  8
FORMAT
100
AcDbBlockReference
  2
SW_CENTERMARKSYMBOL_0
 10
1225.6609846204
 20
743.5060094136
 30
0.0
  0
INSERT
  5
3A9
330
1F
100
AcDbEntity
  8
FORMAT
100
AcDbBlockReference
  2
SW_CENTERMARKSYMBOL_1
 10
592.6609846204
 20
743.5060094136
 30
0.0
  0
INSERT
  5
3B5
330
1F
100
AcDbEntity
  8
FORMAT
100
AcDbBlockReference
  2
SW_CENTERMARKSYMBOL_2
 10
1153.6609846204
 20
796.7560094132
 30
0.0
  0
INSERT
  5
3C1
330
1F
100
AcDbEntity
  8
FORMAT
100
AcDbBlockReference
  2
SW_CENTERMARKSYMBOL_3
 10
1153.6609846204
 20
872.7560094132
 30
0.0
  0
INSERT
  5
3CD
330
1F
100
AcDbEntity
  8
FORMAT
100
AcDbBlockReference
  2
SW_CENTERMARKSYMBOL_4
 10
927.6609846204
 20
872.7560094132
 30
0.0
  0
INSERT
  5
3D9
330
1F
100
AcDbEntity
  8
FORMAT
100
AcDbBlockReference
  2
SW_CENTERMARKSYMBOL_5
 10
927.6609846204
 20
796.7560094132
 30
0.0
  0
INSERT
  5
3E5
330
1F
100
AcDbEntity
  8
FORMAT
100
AcDbBlockReference
  2
SW_CENTERMARKSYMBOL_6
 10
720.6609846204
 20
796.7560094132
 30
0.0
  0
INSERT
  5
3F1
330
1F
100
AcDbEntity
  8
FORMAT
100
AcDbBlockReference
  2
SW_CENTERMARKSYMBOL_7
 10
720.6609846204
 20
872.7560094132
 30
0.0
  0
INSERT
  5
3FD
330
1F
100
AcDbEntity
  8
FORMAT
100
AcDbBlockReference
  2
SW_CENTERMARKSYMBOL_8
 10
527.6609846204
 20
823.7560094136
 30
0.0
  0
INSERT
  5
409
330
1F
100
AcDbEntity
  8
FORMAT
100
AcDbBlockReference
  2
SW_CENTERMARKSYMBOL_9
 10
527.6609846204
 20
847.7560094136
 30
0.0
  0
INSERT
  5
415
330
1F
100
AcDbEntity
  8
FORMAT
100
AcDbBlockReference
  2
SW_CENTERMARKSYMBOL_10
 10
1169.6609846204
 20
823.7560094136
 30
0.0
  0
INSERT
  5
421
330
1F
100
AcDbEntity
  8
FORMAT
100
AcDbBlockReference
  2
SW_CENTERMARKSYMBOL_11
 10
1169.6609846204
 20
847.7560094136
 30
0.0
  0
CIRCLE
  5
422
330
1F
100
AcDbEntity
  8
0
  6
Continuous
 62
     7
370
    18
100
AcDbCircle
 10
728.9248336056
 20
833.9539764988
 30
0.0
 40
54.61984242223423
  0
MTEXT
  5
423
330
1F
100
AcDbEntity
  8
0
  6
Continuous
 62
     7
370
    18
100
AcDbMText
 10
773.5941562012
 20
933.7815846081
 30
0.0
 40
35.0
 41
0.0
 71
     1
 72
     1
  1
C
  7
SLDTEXTSTYLE0
 73
     1
 44
1.0
  0
LINE
  5
424
330
1F
100
AcDbEntity
  8
FORMAT
  6
CENTERX2
370
    18
100
AcDbLine
 10
503.6609846204
 20
630.7560094136
 30
0.0
 11
503.6609846204
 21
532.7824586263
 31
0.0
  0
LINE
  5
425
330
1F
100
AcDbEntity
  8
0
  6
Continuous
 62
     7
370
    25
100
AcDbLine
 10
2374.3038822333
 20
1624.2513032582
 30
0.0
 11
2374.3038822333
 21
1634.0073192271
 31
0.0
  0
LINE
  5
426
330
1F
100
AcDbEntity
  8
0
  6
Continuous
 62
     7
370
    25
100
AcDbLine
 10
2344.3038822333
 20
1633.0073192271
 30
0.0
 11
2344.3038822333
 21
1624.2513032582
 31
0.0
  0
LINE
  5
427
330
1F
100
AcDbEntity
  8
0
  6
Continuous
 62
     7
370
    25
100
AcDbLine
 10
2382.3038822331
 20
1729.0073192271
 30
0.0
 11
2382.3038822331
 21
1730.0073192271
 31
0.0
  0
LINE
  5
428
330
1F
100
AcDbEntity
  8
0
  6
Continuous
 62
     7
370
    25
100
AcDbLine
 10
2305.5538822321
 20
1601.0073192272
 30
0.0
 11
2305.5538822321
 21
1599.0073192333
 31
0.0
  0
LINE
  5
429
330
1F
100
AcDbEntity
  8
0
  6
Continuous
 62
     7
370
    25
100
AcDbLine
 10
2319.5538822321
 20
1599.0073192333
 30
0.0
 11
2319.5538822321
 21
1601.0073192272
 31
0.0
  0
LINE
  5
42A
330
1F
100
AcDbEntity
  8
0
  6
Continuous
 62
     7
370
    25
100
AcDbLine
 10
2317.5538822321
 20
1601.0073192272
 30
0.0
 11
2317.5538822321
 21
1601.5073192272
 31
0.0
  0
LINE
  5
42B
330
1F
100
AcDbEntity
  8
0
  6
Continuous
 62
     7
370
    25
100
AcDbLine
 10
2307.5538822321
 20
1601.5073192272
 30
0.0
 11
2307.5538822321
 21
1601.0073192272
 31
0.0
  0
LINE
  5
42C
330
1F
100
AcDbEntity
  8
0
  6
Continuous
 62
     7
370
    25
100
AcDbLine
 10
2344.3038822333
 20
1622.3073192273
 30
0.0
 11
2344.3038822333
 21
1611.5073192273
 31
0.0
  0
LINE
  5
42D
330
1F
100
AcDbEntity
  8
0
  6
Continuous
 62
     7
370
    25
100
AcDbLine
 10
2374.3038822332
 20
1602.5073192273
 30
0.0
 11
2374.3038822332
 21
1622.3073192273
 31
0.0
  0
LINE
  5
42E
330
1F
100
AcDbEntity
  8
0
  6
Continuous
 62
     7
370
    25
100
AcDbLine
 10
2373.3038822332
 20
1601.5073192273
 30
0.0
 11
2374.3038822332
 21
1602.5073192273
 31
0.0
  0
LINE
  5
42F
330
1F
100
AcDbEntity
  8
0
  6
Continuous
 62
     7
370
    25
100
AcDbLine
 10
2374.3038822332
 20
1622.3073192273
 30
0.0
 11
2374.1038822332
 21
1622.5073192273
 31
0.0
  0
LINE
  5
430
330
1F
100
AcDbEntity
  8
0
  6
Continuous
 62
     7
370
    25
100
AcDbLine
 10
2344.5038822333
 20
1622.5073192273
 30
0.0
 11
2344.3038822333
 21
1622.3073192273
 31
0.0
  0
LWPOLYLINE
  5
431
330
1F
100
AcDbEntity
  8
0
  6
Continuous
 62
     7
370
    25
100
AcDbPolyline
 90
       12
 70
   128
 43
0.0
 10
2350.7181726895
 20
1623.3153002863
 10
2350.608197054
 20
1623.016253628
 10
2350.4235747057
 20
1622.7800410679
 10
2350.3126103078
 20
1622.6896877915
 10
2350.1987670621
 20
1622.6202931321
 10
2350.0924472437
 20
1622.5714445836
 10
2350.0038552785
 20
1622.5400080376
 10
2349.9427143042
 20
1622.5217215519
 10
2349.9182915427
 20
1622.5123835721
 10
2349.9391218476
 20
1622.508482286
 10
2350.0120052094
 20
1622.507393235
 10
2350.0975825351
 20
1622.5073437529
  0
LINE
  5
432
330
1F
100
AcDbEntity
  8
0
  6
Continuous
 62
     7
370
    25
100
AcDbLine
 10
2350.9011635122
 20
1624.2513032582
 30
0.0
 11
2350.7050397461
 21
1623.2481271816
 31
0.0
  0
LWPOLYLINE
  5
433
330
1F
100
AcDbEntity
  8
0
  6
Continuous
 62
     7
370
    25
100
AcDbPolyline
 90
        4
 70
   128
 43
0.0
 10
2369.534176134
 20
1622.507341963
 10
2369.573784709
 20
1622.507364648
 10
2369.5994142058
 20
1622.5084159719
 10
2369.5986856601
 20
1622.5085748365
  0
ARC
  5
434
330
1F
100
AcDbEntity
  8
0
  6
Continuous
 62
     7
370
    25
100
AcDbCircle
 10
2369.7251973716
 20
1623.5184986861
 30
0.0
 40
1.01633464652806
100
AcDbArc
 50
192.6141786486
 51
261.8326251793
  0
LWPOLYLINE
  5
435
330
1F
100
AcDbEntity
  8
0
  6
Continuous
 62
     7
370
    25
100
AcDbPolyline
 90
        3
 70
   128
 43
0.0
 10
2344.1516975012
 20
1610.4497956428
 10
2344.0875112037
 20
1610.1061882498
 10
2344.001623291
 20
1609.7178457719
  0
LINE
  5
436
330
1F
100
AcDbEntity
  8
0
  6
Continuous
 62
     7
370
    25
100
AcDbLine
 10
2368.7333949757
 20
1623.2965448022
 30
0.0
 11
2368.527607109
 21
1624.2513032582
 31
0.0
  0
ARC
  5
437
330
1F
100
AcDbEntity
  8
0
  6
Continuous
 62
     7
370
    25
100
AcDbCircle
 10
2341.3038822333
 20
1611.5073192273
 30
0.0
 40
3.0
100
AcDbArc
 50
347.449168654
 51
0.0000000003
  0
LINE
  5
438
330
1F
100
AcDbEntity
  8
0
  6
Continuous
 62
     7
370
    25
100
AcDbLine
 10
2350.0801573575
 20
1624.2513032582
 30
0.0
 11
2349.8743694019
 21
1623.2965443895
 31
0.0
  0
ARC
  5
439
330
1F
100
AcDbEntity
  8
0
  6
Continuous
 62
     7
370
    25
100
AcDbCircle
 10
2348.844497095
 20
1623.5402564527
 30
0.0
 40
1.058316156626031
100
AcDbArc
 50
282.572982315
 51
346.686404055
  0
LINE
  5
43A
330
1F
100
AcDbEntity
  8
0
  6
Continuous
 62
     7
370
    25
100
AcDbLine
 10
2301.5538822325
 20
1602.5073192272
 30
0.0
 11
2302.5538822325
 21
1601.5073192272
 31
0.0
  0
LINE
  5
43B
330
1F
100
AcDbEntity
  8
0
  6
Continuous
 62
     7
370
    25
100
AcDbLine
 10
2302.5538822325
 20
1608.5073192271
 30
0.0
 11
2301.5538822325
 21
1607.5073192272
 31
0.0
  0
LINE
  5
43C
330
1F
100
AcDbEntity
  8
0
  6
Continuous
 62
     7
370
    25
100
AcDbLine
 10
2301.5538822325
 20
1607.5073192272
 30
0.0
 11
2301.5538822325
 21
1602.5073192272
 31
0.0
  0
LINE
  5
43D
330
1F
100
AcDbEntity
  8
0
  6
Continuous
 62
     7
370
    25
100
AcDbLine
 10
2229.3038822335
 20
1312.5073192271
 30
0.0
 11
2229.3038822335
 21
1632.5073192271
 31
0.0
  0
LINE
  5
43E
330
1F
100
AcDbEntity
  8
0
  6
Continuous
 62
     7
370
    25
100
AcDbLine
 10
2269.3038822335
 20
1607.5073192271
 30
0.0
 11
2269.3038822335
 21
1632.5073192271
 31
0.0
  0
LINE
  5
43F
330
1F
100
AcDbEntity
  8
0
  6
Continuous
 62
     7
370
    25
100
AcDbLine
 10
2269.3038822335
 20
1607.5073192271
 30
0.0
 11
2299.3038822335
 21
1607.5073192271
 31
0.0
  0
LINE
  5
440
330
1F
100
AcDbEntity
  8
0
  6
Continuous
 62
     7
370
    25
100
AcDbLine
 10
2299.3038822335
 20
1607.5073192271
 30
0.0
 11
2299.3038822335
 21
1598.5073192314
 31
0.0
  0
LINE
  5
441
330
1F
100
AcDbEntity
  8
0
  6
Continuous
 62
     7
370
    25
100
AcDbLine
 10
2299.3038822335
 20
1582.5073192333
 30
0.0
 11
2299.3038822335
 21
1312.5073192271
 31
0.0
  0
LINE
  5
442
330
1F
100
AcDbEntity
  8
0
  6
Continuous
 62
     7
370
    25
100
AcDbLine
 10
2299.3038822335
 20
1312.5073192271
 30
0.0
 11
2229.3038822335
 21
1312.5073192271
 31
0.0
  0
LINE
  5
443
330
1F
100
AcDbEntity
  8
0
  6
Continuous
 62
     7
370
    25
100
AcDbLine
 10
2229.3038822335
 20
1632.5073192271
 30
0.0
 11
2269.3038822335
 21
1632.5073192271
 31
0.0
  0
LINE
  5
444
330
1F
100
AcDbEntity
  8
0
  6
Continuous
 62
     7
370
    25
100
AcDbLine
 10
2299.3038822335
 20
1812.5073192271
 30
0.0
 11
2299.3038822335
 21
1729.0073192271
 31
0.0
  0
LINE
  5
445
330
1F
100
AcDbEntity
  8
0
  6
Continuous
 62
     7
370
    25
100
AcDbLine
 10
2299.3038822335
 20
1634.0073192271
 30
0.0
 11
2299.3038822335
 21
1612.5073192271
 31
0.0
  0
LINE
  5
446
330
1F
100
AcDbEntity
  8
0
  6
Continuous
 62
     7
370
    25
100
AcDbLine
 10
2299.3038822335
 20
1612.5073192271
 30
0.0
 11
2269.3038822335
 21
1612.5073192271
 31
0.0
  0
LINE
  5
447
330
1F
100
AcDbEntity
  8
0
  6
Continuous
 62
     7
370
    25
100
AcDbLine
 10
2269.3038822335
 20
1612.5073192271
 30
0.0
 11
2269.3038822335
 21
1637.5073192271
 31
0.0
  0
LINE
  5
448
330
1F
100
AcDbEntity
  8
0
  6
Continuous
 62
     7
370
    25
100
AcDbLine
 10
2269.3038822335
 20
1637.5073192271
 30
0.0
 11
2229.3038822335
 21
1637.5073192271
 31
0.0
  0
LINE
  5
449
330
1F
100
AcDbEntity
  8
0
  6
Continuous
 62
     7
370
    25
100
AcDbLine
 10
2229.3038822335
 20
1812.5073192271
 30
0.0
 11
2299.3038822335
 21
1812.5073192271
 31
0.0
  0
LINE
  5
44A
330
1F
100
AcDbEntity
  8
0
  6
Continuous
 62
     7
370
    25
100
AcDbLine
 10
2229.3038822335
 20
1812.5073192271
 30
0.0
 11
2229.3038822335
 21
1637.5073192271
 31
0.0
  0
LINE
  5
44B
330
1F
100
AcDbEntity
  8
0
  6
Continuous
 62
     7
370
    25
100
AcDbLine
 10
2299.3038822335
 20
1607.5073192271
 30
0.0
 11
2299.3038822335
 21
1612.5073192271
 31
0.0
  0
LINE
  5
44C
330
1F
100
AcDbEntity
  8
0
  6
Continuous
 62
     7
370
    25
100
AcDbLine
 10
2229.3038822335
 20
1637.5073192271
 30
0.0
 11
2229.3038822335
 21
1632.5073192271
 31
0.0
  0
LINE
  5
44D
330
1F
100
AcDbEntity
  8
0
  6
Continuous
 62
     7
370
    25
100
AcDbLine
 10
2346.0908186519
 20
1624.2513032582
 30
0.0
 11
2374.3038822333
 21
1624.2513032582
 31
0.0
  0
LINE
  5
44E
330
1F
100
AcDbEntity
  8
0
  6
Continuous
 62
     7
370
    25
100
AcDbLine
 10
2344.3038822333
 20
1624.2513032582
 30
0.0
 11
2346.0908186519
 21
1624.2513032582
 31
0.0
  0
LINE
  5
44F
330
1F
100
AcDbEntity
  8
0
  6
Continuous
 62
     7
370
    25
100
AcDbLine
 10
2300.3038822331
 20
1729.0073192271
 30
0.0
 11
2300.3038822331
 21
1730.0073192271
 31
0.0
  0
LINE
  5
450
330
1F
100
AcDbEntity
  8
0
  6
Continuous
 62
     7
370
    25
100
AcDbLine
 10
2300.3038822331
 20
1730.0073192271
 30
0.0
 11
2359.3038822331
 21
1730.0073192271
 31
0.0
  0
LINE
  5
451
330
1F
100
AcDbEntity
  8
0
  6
Continuous
 62
     7
370
    25
100
AcDbLine
 10
2359.3038822331
 20
1730.0073192271
 30
0.0
 11
2359.3038822331
 21
1729.0073192271
 31
0.0
  0
LINE
  5
452
330
1F
100
AcDbEntity
  8
0
  6
Continuous
 62
     7
370
    25
100
AcDbLine
 10
2359.3038822331
 20
1730.0073192271
 30
0.0
 11
2382.3038822331
 21
1730.0073192271
 31
0.0
  0
LINE
  5
453
330
1F
100
AcDbEntity
  8
0
  6
Continuous
 62
     7
370
    25
100
AcDbLine
 10
2356.3038822331
 20
1634.0073192271
 30
0.0
 11
2356.3038822331
 21
1633.0073192271
 31
0.0
  0
LINE
  5
454
330
1F
100
AcDbEntity
  8
0
  6
Continuous
 62
     7
370
    25
100
AcDbLine
 10
2356.3038822331
 20
1633.0073192271
 30
0.0
 11
2300.3038822331
 21
1633.0073192271
 31
0.0
  0
LINE
  5
455
330
1F
100
AcDbEntity
  8
0
  6
Continuous
 62
     7
370
    25
100
AcDbLine
 10
2300.3038822331
 20
1633.0073192271
 30
0.0
 11
2300.3038822331
 21
1634.0073192271
 31
0.0
  0
LINE
  5
456
330
1F
100
AcDbEntity
  8
0
  6
Continuous
 62
     7
370
    25
100
AcDbLine
 10
2414.3038822331
 20
1639.0073192271
 30
0.0
 11
2414.3038822331
 21
1724.0073192271
 31
0.0
  0
LINE
  5
457
330
1F
100
AcDbEntity
  8
0
  6
Continuous
 62
     7
370
    25
100
AcDbLine
 10
2299.3038822331
 20
1639.0073192271
 30
0.0
 11
2414.3038822331
 21
1639.0073192271
 31
0.0
  0
LINE
  5
458
330
1F
100
AcDbEntity
  8
0
  6
Continuous
 62
     7
370
    25
100
AcDbLine
 10
2299.3038822331
 20
1724.0073192271
 30
0.0
 11
2299.3038822331
 21
1639.0073192271
 31
0.0
  0
LINE
  5
459
330
1F
100
AcDbEntity
  8
0
  6
Continuous
 62
     7
370
    25
100
AcDbLine
 10
2414.3038822331
 20
1724.0073192271
 30
0.0
 11
2299.3038822331
 21
1724.0073192271
 31
0.0
  0
LINE
  5
45A
330
1F
100
AcDbEntity
  8
0
  6
Continuous
 62
     7
370
    25
100
AcDbLine
 10
2311.3038822331
 20
1711.0073192271
 30
0.0
 11
2311.3038822331
 21
1652.0073192271
 31
0.0
  0
ARC
  5
45B
330
1F
100
AcDbEntity
  8
0
  6
Continuous
 62
     7
370
    25
100
AcDbCircle
 10
2314.3038822331
 20
1652.0073192271
 30
0.0
 40
3.0
100
AcDbArc
 50
180.0
 51
270.0
  0
LINE
  5
45C
330
1F
100
AcDbEntity
  8
0
  6
Continuous
 62
     7
370
    25
100
AcDbLine
 10
2314.3038822331
 20
1649.0073192271
 30
0.0
 11
2400.3038822331
 21
1649.0073192271
 31
0.0
  0
ARC
  5
45D
330
1F
100
AcDbEntity
  8
0
  6
Continuous
 62
     7
370
    25
100
AcDbCircle
 10
2400.3038822331
 20
1652.0073192271
 30
0.0
 40
3.0
100
AcDbArc
 50
270.0
 51
0.0
  0
LINE
  5
45E
330
1F
100
AcDbEntity
  8
0
  6
Continuous
 62
     7
370
    25
100
AcDbLine
 10
2403.3038822331
 20
1652.0073192271
 30
0.0
 11
2403.3038822331
 21
1711.0073192271
 31
0.0
  0
ARC
  5
45F
330
1F
100
AcDbEntity
  8
0
  6
Continuous
 62
     7
370
    25
100
AcDbCircle
 10
2400.3038822331
 20
1711.0073192271
 30
0.0
 40
3.0
100
AcDbArc
 50
0.0
 51
90.0
  0
LINE
  5
460
330
1F
100
AcDbEntity
  8
0
  6
Continuous
 62
     7
370
    25
100
AcDbLine
 10
2400.3038822331
 20
1714.0073192271
 30
0.0
 11
2314.3038822331
 21
1714.0073192271
 31
0.0
  0
ARC
  5
461
330
1F
100
AcDbEntity
  8
0
  6
Continuous
 62
     7
370
    25
100
AcDbCircle
 10
2314.3038822331
 20
1711.0073192271
 30
0.0
 40
3.0
100
AcDbArc
 50
90.0
 51
180.0
  0
LINE
  5
462
330
1F
100
AcDbEntity
  8
0
  6
Continuous
 62
     7
370
    25
100
AcDbLine
 10
2414.3038822331
 20
1727.0073192271
 30
0.0
 11
2307.8038822331
 21
1727.0073192271
 31
0.0
  0
LINE
  5
463
330
1F
100
AcDbEntity
  8
0
  6
Continuous
 62
     7
370
    25
100
AcDbLine
 10
2414.3038822331
 20
1724.0073192271
 30
0.0
 11
2414.3038822331
 21
1727.0073192271
 31
0.0
  0
LINE
  5
464
330
1F
100
AcDbEntity
  8
0
  6
Continuous
 62
     7
370
    25
100
AcDbLine
 10
2299.3038822331
 20
1724.0073192271
 30
0.0
 11
2299.3038822331
 21
1727.0073192271
 31
0.0
  0
LINE
  5
465
330
1F
100
AcDbEntity
  8
0
  6
Continuous
 62
     7
370
    25
100
AcDbLine
 10
2302.8038822331
 20
1727.0073192271
 30
0.0
 11
2299.3038822331
 21
1727.0073192271
 31
0.0
  0
ARC
  5
466
330
1F
100
AcDbEntity
  8
0
  6
Continuous
 62
     7
370
    25
100
AcDbCircle
 10
2305.3038822331
 20
1728.3406525605
 30
0.0
 40
2.833333333333405
100
AcDbArc
 50
208.0724869359
 51
331.9275130641
  0
LINE
  5
467
330
1F
100
AcDbEntity
  8
0
  6
Continuous
 62
     7
370
    25
100
AcDbLine
 10
2299.3038822331
 20
1636.0073192271
 30
0.0
 11
2302.8038822331
 21
1636.0073192271
 31
0.0
  0
LINE
  5
468
330
1F
100
AcDbEntity
  8
0
  6
Continuous
 62
     7
370
    25
100
AcDbLine
 10
2299.3038822331
 20
1636.0073192271
 30
0.0
 11
2299.3038822331
 21
1639.0073192271
 31
0.0
  0
LINE
  5
469
330
1F
100
AcDbEntity
  8
0
  6
Continuous
 62
     7
370
    25
100
AcDbLine
 10
2414.3038822331
 20
1636.0073192271
 30
0.0
 11
2414.3038822331
 21
1639.0073192271
 31
0.0
  0
LINE
  5
46A
330
1F
100
AcDbEntity
  8
0
  6
Continuous
 62
     7
370
    25
100
AcDbLine
 10
2307.8038822331
 20
1636.0073192271
 30
0.0
 11
2414.3038822331
 21
1636.0073192271
 31
0.0
  0
ARC
  5
46B
330
1F
100
AcDbEntity
  8
0
  6
Continuous
 62
     7
370
    25
100
AcDbCircle
 10
2305.3038822331
 20
1634.6739858938
 30
0.0
 40
2.833333333332575
100
AcDbArc
 50
28.0724869358
 51
151.9275130642
  0
LINE
  5
46C
330
1F
100
AcDbEntity
  8
0
  6
Continuous
 62
     7
370
    25
100
AcDbLine
 10
2417.3038822331
 20
1639.0073192271
 30
0.0
 11
2417.3038822331
 21
1724.0073192318
 31
0.0
  0
LINE
  5
46D
330
1F
100
AcDbEntity
  8
0
  6
Continuous
 62
     7
370
    25
100
AcDbLine
 10
2414.3038822331
 20
1639.0073192271
 30
0.0
 11
2417.3038822331
 21
1639.0073192271
 31
0.0
  0
LINE
  5
46E
330
1F
100
AcDbEntity
  8
0
  6
Continuous
 62
     7
370
    25
100
AcDbLine
 10
2417.3038822331
 20
1724.0073192271
 30
0.0
 11
2414.3038822331
 21
1724.0073192271
 31
0.0
  0
ARC
  5
46F
330
1F
100
AcDbEntity
  8
0
  6
Continuous
 62
     7
370
    25
100
AcDbCircle
 10
2414.3038822331
 20
1639.0073192271
 30
0.0
 40
3.000000000000455
100
AcDbArc
 50
269.9999996402
 51
0.0
  0
ARC
  5
470
330
1F
100
AcDbEntity
  8
0
  6
Continuous
 62
     7
370
    25
100
AcDbCircle
 10
2414.3038822331
 20
1724.0073192271
 30
0.0
 40
3.000000000000227
100
AcDbArc
 50
0.0000001799
 51
90.0
  0
LINE
  5
471
330
1F
100
AcDbEntity
  8
0
  6
Continuous
 62
     7
370
    25
100
AcDbLine
 10
2299.3038822331
 20
1729.0073192271
 30
0.0
 11
2414.3038822331
 21
1729.0073192271
 31
0.0
  0
ARC
  5
472
330
1F
100
AcDbEntity
  8
0
  6
Continuous
 62
     7
370
    25
100
AcDbCircle
 10
2414.3038822331
 20
1724.0073192271
 30
0.0
 40
5.000000000000227
100
AcDbArc
 50
0.0
 51
90.0
  0
LINE
  5
473
330
1F
100
AcDbEntity
  8
0
  6
Continuous
 62
     7
370
    25
100
AcDbLine
 10
2419.3038822331
 20
1724.0073192271
 30
0.0
 11
2419.3038822331
 21
1639.0073192271
 31
0.0
  0
ARC
  5
474
330
1F
100
AcDbEntity
  8
0
  6
Continuous
 62
     7
370
    25
100
AcDbCircle
 10
2414.3038822331
 20
1639.0073192271
 30
0.0
 40
5.0
100
AcDbArc
 50
270.0
 51
0.0
  0
LINE
  5
475
330
1F
100
AcDbEntity
  8
0
  6
Continuous
 62
     7
370
    25
100
AcDbLine
 10
2414.3038822331
 20
1634.0073192271
 30
0.0
 11
2299.3038822331
 21
1634.0073192271
 31
0.0
  0
LINE
  5
476
330
1F
100
AcDbEntity
  8
0
  6
Continuous
 62
     7
370
    25
100
AcDbLine
 10
2299.3038822331
 20
1727.0073192271
 30
0.0
 11
2299.3038822331
 21
1729.0073192271
 31
0.0
  0
LINE
  5
477
330
1F
100
AcDbEntity
  8
0
  6
Continuous
 62
     7
370
    25
100
AcDbLine
 10
2299.3038822331
 20
1634.0073192271
 30
0.0
 11
2299.3038822331
 21
1636.0073192271
 31
0.0
  0
LINE
  5
478
330
1F
100
AcDbEntity
  8
0
  6
Continuous
 62
     7
370
    25
100
AcDbLine
 10
2305.5578053523
 20
1601.0073192272
 30
0.0
 11
2305.5538822321
 21
1601.0073192272
 31
0.0
  0
LINE
  5
479
330
1F
100
AcDbEntity
  8
0
  6
Continuous
 62
     7
370
    25
100
AcDbLine
 10
2319.5538822321
 20
1601.0073192272
 30
0.0
 11
2305.5578053523
 21
1601.0073192272
 31
0.0
  0
LINE
  5
47A
330
1F
100
AcDbEntity
  8
0
  6
Continuous
 62
     7
370
    25
100
AcDbLine
 10
2374.3038822332
 20
1602.5073192273
 30
0.0
 11
2344.4066827403
 21
1602.5073192273
 31
0.0
  0
LINE
  5
47B
330
1F
100
AcDbEntity
  8
0
  6
Continuous
 62
     7
370
    25
100
AcDbLine
 10
2344.4066827403
 20
1602.5073192273
 30
0.0
 11
2344.4066827403
 21
1611.5073192273
 31
0.0
  0
LINE
  5
47C
330
1F
100
AcDbEntity
  8
0
  6
Continuous
 62
     7
370
    25
100
AcDbLine
 10
2374.3038822332
 20
1622.3073192273
 30
0.0
 11
2344.3038822333
 21
1622.3073192273
 31
0.0
  0
LINE
  5
47D
330
1F
100
AcDbEntity
  8
0
  6
Continuous
 62
     7
370
    25
100
AcDbLine
 10
2373.3038822332
 20
1601.5073192273
 30
0.0
 11
2345.3998293732
 21
1601.5073192273
 31
0.0
  0
LINE
  5
47E
330
1F
100
AcDbEntity
  8
0
  6
Continuous
 62
     7
370
    25
100
AcDbLine
 10
2345.3998293732
 20
1601.5073192273
 30
0.0
 11
2344.4066827403
 21
1602.5073192273
 31
0.0
  0
LINE
  5
47F
330
1F
100
AcDbEntity
  8
0
  6
Continuous
 62
     7
370
    25
100
AcDbLine
 10
2374.1038822332
 20
1622.5073192273
 30
0.0
 11
2344.5038822333
 21
1622.5073192273
 31
0.0
  0
LWPOLYLINE
  5
480
330
1F
100
AcDbEntity
  8
0
  6
Continuous
 62
     7
370
    25
100
AcDbPolyline
 90
        9
 70
   128
 43
0.0
 10
2357.4277317379
 20
1622.5073192273
 10
2357.3419362651
 20
1622.5228926592
 10
2357.2588130522
 20
1622.5691278914
 10
2357.1809511266
 20
1622.6445848413
 10
2357.1107756432
 20
1622.7469132617
 10
2357.050472348
 20
1622.8729259431
 10
2357.0019194997
 20
1623.0186979858
 10
2356.9666293671
 20
1623.1796890477
 10
2356.9457011274
 20
1623.3508847623
  0
ARC
  5
481
330
1F
100
AcDbEntity
  8
0
  6
Continuous
 62
     7
370
    25
100
AcDbCircle
 10
2355.4918917018
 20
1623.4248760933
 30
0.0
 40
0.9191498472619635
100
AcDbArc
 50
273.3737472447
 51
355.3827081636
  0
ARC
  5
482
330
1F
100
AcDbEntity
  8
0
  6
Continuous
 62
     7
370
    25
100
AcDbCircle
 10
2356.6768798405
 20
1623.8843420737
 30
0.0
 40
0.5973621911671255
100
AcDbArc
 50
243.2554258352
 51
296.744575499
  0
LWPOLYLINE
  5
483
330
1F
100
AcDbEntity
  8
0
  6
Continuous
 62
     7
370
    25
100
AcDbPolyline
 90
        3
 70
   128
 43
0.0
 10
2360.1076647925
 20
1622.7469132617
 10
2360.202139676
 20
1622.5691278914
 10
2360.3174958362
 20
1622.5073192273
  0
LINE
  5
484
330
1F
100
AcDbEntity
  8
0
  6
Continuous
 62
     7
370
    25
100
AcDbLine
 10
2356.9457011274
 20
1623.3508847623
 30
0.0
 11
2360.0497153278
 21
1623.3508847622
 31
0.0
  0
LWPOLYLINE
  5
485
330
1F
100
AcDbEntity
  8
0
  6
Continuous
 62
     7
370
    25
100
AcDbPolyline
 90
        3
 70
   128
 43
0.0
 10
2360.0497153278
 20
1623.3508847623
 10
2360.0523711745
 20
1623.0186979858
 10
2360.1076647925
 20
1622.7469132617
  0
LWPOLYLINE
  5
486
330
1F
100
AcDbEntity
  8
0
  6
Continuous
 62
     7
370
    25
100
AcDbPolyline
 90
        3
 70
   128
 43
0.0
 10
2360.3760952825
 20
1622.7469132596
 10
2360.3777307442
 20
1623.0186979844
 10
2360.3500205945
 20
1623.3508847622
  0
LINE
  5
487
330
1F
100
AcDbEntity
  8
0
  6
Continuous
 62
     7
370
    25
100
AcDbLine
 10
2360.3500205945
 20
1623.3508847622
 30
0.0
 11
2363.7721537037
 21
1623.3508847622
 31
0.0
  0
LWPOLYLINE
  5
488
330
1F
100
AcDbEntity
  8
0
  6
Continuous
 62
     7
370
    25
100
AcDbPolyline
 90
        9
 70
   128
 43
0.0
 10
2363.7721537037
 20
1623.3508847622
 10
2363.7604861887
 20
1623.1796890477
 10
2363.7408119038
 20
1623.0186979858
 10
2363.7137436414
 20
1622.8729259431
 10
2363.6801244929
 20
1622.7469132617
 10
2363.6410015893
 20
1622.6445848413
 10
2363.5975934864
 20
1622.5691278914
 10
2363.5512522105
 20
1622.5228926592
 10
2363.5034211469
 20
1622.5073192273
  0
LWPOLYLINE
  5
489
330
1F
100
AcDbEntity
  8
0
  6
Continuous
 62
     7
370
    25
100
AcDbPolyline
 90
        3
 70
   128
 43
0.0
 10
2360.3174958362
 20
1622.5073192273
 10
2360.3526162258
 20
1622.5691278908
 10
2360.3760952825
 20
1622.7469132596
  0
LWPOLYLINE
  5
48A
330
1F
100
AcDbEntity
  8
0
  6
Continuous
 62
     7
370
    25
100
AcDbPolyline
 90
        3
 70
   128
 43
0.0
 10
2354.4371213542
 20
1622.7469132596
 10
2354.6018529163
 20
1623.0186979844
 10
2354.6724457452
 20
1623.3508847622
  0
LINE
  5
48B
330
1F
100
AcDbEntity
  8
0
  6
Continuous
 62
     7
370
    25
100
AcDbLine
 10
2354.6724457452
 20
1623.3508847622
 30
0.0
 11
2356.4080585669
 21
1623.3508847622
 31
0.0
  0
LWPOLYLINE
  5
48C
330
1F
100
AcDbEntity
  8
0
  6
Continuous
 62
     7
370
    25
100
AcDbPolyline
 90
        3
 70
   128
 43
0.0
 10
2353.9301680781
 20
1622.5073192273
 10
2354.2023170197
 20
1622.5691278908
 10
2354.4371213542
 20
1622.7469132596
  0
ARC
  5
48D
330
1F
100
AcDbEntity
  8
0
  6
Continuous
 62
     7
370
    25
100
AcDbCircle
 10
2365.2254932577
 20
1623.4816952923
 30
0.0
 40
0.9744953823054515
100
AcDbArc
 50
187.7143350976
 51
269.1033892401
  0
LWPOLYLINE
  5
48E
330
1F
100
AcDbEntity
  8
0
  6
Continuous
 62
     7
370
    25
100
AcDbPolyline
 90
        8
 70
   128
 43
0.0
 10
2363.7721537035
 20
1623.350884756
 10
2363.9259499969
 20
1623.306014088
 10
2364.0060256146
 20
1623.2931553045
 10
2364.0804451919
 20
1623.2888331303
 10
2364.1454096271
 20
1623.2932298467
 10
2364.1948639345
 20
1623.3049911154
 10
2364.2338170611
 20
1623.3241986211
 10
2364.2598174035
 20
1623.3508847623
  0
LWPOLYLINE
  5
48F
330
1F
100
AcDbEntity
  8
0
  6
Continuous
 62
     7
370
    25
100
AcDbPolyline
 90
        3
 70
   128
 43
0.0
 10
2365.5195093398
 20
1622.7469132617
 10
2365.7946999575
 20
1622.5691278914
 10
2366.1110624927
 20
1622.5073192273
  0
LINE
  5
490
330
1F
100
AcDbEntity
  8
0
  6
Continuous
 62
     7
370
    25
100
AcDbLine
 10
2364.2598174035
 20
1623.3508847623
 30
0.0
 11
2365.2274233109
 21
1623.3508847622
 31
0.0
  0
LWPOLYLINE
  5
491
330
1F
100
AcDbEntity
  8
0
  6
Continuous
 62
     7
370
    25
100
AcDbPolyline
 90
        3
 70
   128
 43
0.0
 10
2365.2274233109
 20
1623.3508847622
 10
2365.3215729949
 20
1623.0186979858
 10
2365.5195093398
 20
1622.7469132617
  0
ARC
  5
492
330
1F
100
AcDbEntity
  8
0
  6
Continuous
 62
     7
370
    25
100
AcDbCircle
 10
2358.8091671106
 20
1623.7988202139
 30
0.0
 40
1.671108753517633
100
AcDbArc
 50
320.9892283137
 51
327.6243106473
  0
ARC
  5
493
330
1F
100
AcDbEntity
  8
0
  6
Continuous
 62
     7
370
    25
100
AcDbCircle
 10
2361.0789114984
 20
1623.5986264883
 30
0.0
 40
1.104249092001427
100
AcDbArc
 50
218.980366802
 51
230.4712529786
  0
LINE
  5
494
330
1F
100
AcDbEntity
  8
0
  6
Continuous
 62
     7
370
    25
100
AcDbLine
 10
2360.1966329626
 20
1623.3383502213
 30
0.0
 11
2360.0497153278
 21
1623.3508847623
 31
0.0
  0
ARC
  5
495
330
1F
100
AcDbEntity
  8
0
  6
Continuous
 62
     7
370
    25
100
AcDbCircle
 10
2366.5536626422
 20
1623.469978503
 30
0.0
 40
6.358392237226327
100
AcDbArc
 50
181.1861930229
 51
185.106871815
  0
LINE
  5
496
330
1F
100
AcDbEntity
  8
0
  6
Continuous
 62
     7
370
    25
100
AcDbLine
 10
2360.3500205945
 20
1623.3508847622
 30
0.0
 11
2360.1966329626
 21
1623.3383502213
 31
0.0
  0
LWPOLYLINE
  5
497
330
1F
100
AcDbEntity
  8
0
  6
Continuous
 62
     7
370
    25
100
AcDbPolyline
 90
        3
 70
   128
 43
0.0
 10
2354.2249753232
 20
1622.7469132617
 10
2354.0833923671
 20
1622.5691278914
 10
2353.9301680781
 20
1622.5073192273
  0
LWPOLYLINE
  5
498
330
1F
100
AcDbEntity
  8
0
  6
Continuous
 62
     7
370
    25
100
AcDbPolyline
 90
        9
 70
   128
 43
0.0
 10
2350.7442428037
 20
1622.5073192273
 10
2350.7920738673
 20
1622.5228926592
 10
2350.8384151432
 20
1622.5691278914
 10
2350.8818232461
 20
1622.6445848413
 10
2350.9209461497
 20
1622.7469132617
 10
2350.9545652982
 20
1622.8729259431
 10
2350.9816335607
 20
1623.0186979858
 10
2351.0013078455
 20
1623.1796890477
 10
2351.0129753606
 20
1623.3508847623
  0
LINE
  5
499
330
1F
100
AcDbEntity
  8
0
  6
Continuous
 62
     7
370
    25
100
AcDbLine
 10
2351.0129753606
 20
1623.3508847622
 30
0.0
 11
2354.4351084332
 21
1623.3508847622
 31
0.0
  0
LWPOLYLINE
  5
49A
330
1F
100
AcDbEntity
  8
0
  6
Continuous
 62
     7
370
    25
100
AcDbPolyline
 90
        3
 70
   128
 43
0.0
 10
2354.4351084332
 20
1623.3508847622
 10
2354.3447146837
 20
1623.0186979858
 10
2354.2249753232
 20
1622.7469132617
  0
ARC
  5
49B
330
1F
100
AcDbEntity
  8
0
  6
Continuous
 62
     7
370
    25
100
AcDbCircle
 10
2353.7468988943
 20
1623.6462580031
 30
0.0
 40
1.01851756775358
100
AcDbArc
 50
297.9943549492
 51
313.2167180069
  0
ARC
  5
49C
330
1F
100
AcDbEntity
  8
0
  6
Continuous
 62
     7
370
    25
100
AcDbCircle
 10
2353.9785307006
 20
1622.8466903923
 30
0.0
 40
0.4693195753538469
100
AcDbArc
 50
347.7252635696
 51
7.013291438
  0
ARC
  5
49D
330
1F
100
AcDbEntity
  8
0
  6
Continuous
 62
     7
370
    25
100
AcDbCircle
 10
2353.2268150704
 20
1623.4950660696
 30
0.0
 40
1.353414193768468
100
AcDbArc
 50
334.1047902993
 51
353.3506380246
  0
LINE
  5
49E
330
1F
100
AcDbEntity
  8
0
  6
Continuous
 62
     7
370
    25
100
AcDbLine
 10
2354.6724457452
 20
1623.3508847622
 30
0.0
 11
2354.5711255611
 21
1623.3383502213
 31
0.0
  0
LINE
  5
49F
330
1F
100
AcDbEntity
  8
0
  6
Continuous
 62
     7
370
    25
100
AcDbLine
 10
2354.5711255611
 20
1623.3383502213
 30
0.0
 11
2354.4351084332
 21
1623.3508847622
 31
0.0
  0
LINE
  5
4A0
330
1F
100
AcDbEntity
  8
0
  6
Continuous
 62
     7
370
    25
100
AcDbLine
 10
2349.9305513863
 20
1622.5180635685
 30
0.0
 11
2349.7898708759
 21
1622.5073192273
 31
0.0
  0
LWPOLYLINE
  5
4A1
330
1F
100
AcDbEntity
  8
0
  6
Continuous
 62
     7
370
    25
100
AcDbPolyline
 90
        8
 70
   128
 43
0.0
 10
2350.7402976586
 20
1623.350884756
 10
2350.7183653688
 20
1623.306014088
 10
2350.7320487044
 20
1623.2931553045
 10
2350.7632409333
 20
1623.2888331303
 10
2350.8103264866
 20
1623.2932298467
 10
2350.8661079322
 20
1623.3049911154
 10
2350.9340712973
 20
1623.3241986211
 10
2351.0129753606
 20
1623.3508847622
  0
LWPOLYLINE
  5
4A2
330
1F
100
AcDbEntity
  8
0
  6
Continuous
 62
     7
370
    25
100
AcDbPolyline
 90
        3
 70
   128
 43
0.0
 10
2365.6869813483
 20
1622.7469132596
 10
2365.5245626784
 20
1623.0186979844
 10
2365.41478178
 20
1623.3508847622
  0
LINE
  5
4A3
330
1F
100
AcDbEntity
  8
0
  6
Continuous
 62
     7
370
    25
100
AcDbLine
 10
2365.41478178
 20
1623.3508847622
 30
0.0
 11
2368.5187960136
 21
1623.3508847622
 31
0.0
  0
LWPOLYLINE
  5
4A4
330
1F
100
AcDbEntity
  8
0
  6
Continuous
 62
     7
370
    25
100
AcDbPolyline
 90
        9
 70
   128
 43
0.0
 10
2368.5187960136
 20
1623.3508847622
 10
2368.5397242533
 20
1623.1796890477
 10
2368.5750143859
 20
1623.0186979858
 10
2368.6235672342
 20
1622.8729259431
 10
2368.6838705293
 20
1622.7469132617
 10
2368.7540460128
 20
1622.6445848413
 10
2368.8319079384
 20
1622.5691278914
 10
2368.9150311513
 20
1622.5228926592
 10
2369.000826624
 20
1622.5073192273
  0
LWPOLYLINE
  5
4A5
330
1F
100
AcDbEntity
  8
0
  6
Continuous
 62
     7
370
    25
100
AcDbPolyline
 90
        3
 70
   128
 43
0.0
 10
2366.1110624927
 20
1622.5073192273
 10
2365.8885812823
 20
1622.5691278908
 10
2365.6869813483
 20
1622.7469132596
  0
ARC
  5
4A6
330
1F
100
AcDbEntity
  8
0
  6
Continuous
 62
     7
370
    25
100
AcDbCircle
 10
2365.8124311607
 20
1622.9482949181
 30
0.0
 40
0.3554683736799555
100
AcDbArc
 50
187.1591901879
 51
214.5082446731
  0
ARC
  5
4A7
330
1F
100
AcDbEntity
  8
0
  6
Continuous
 62
     7
370
    25
100
AcDbCircle
 10
2366.1014480821
 20
1623.5894364489
 30
0.0
 40
0.9389504768119457
100
AcDbArc
 50
226.8871512527
 51
243.8058075802
  0
LINE
  5
4A8
330
1F
100
AcDbEntity
  8
0
  6
Continuous
 62
     7
370
    25
100
AcDbLine
 10
2365.2991790947
 20
1623.3383502213
 30
0.0
 11
2365.2274233109
 21
1623.3508847622
 31
0.0
  0
ARC
  5
4A9
330
1F
100
AcDbEntity
  8
0
  6
Continuous
 62
     7
370
    25
100
AcDbCircle
 10
2366.4325749086
 20
1623.5104452279
 30
0.0
 40
1.146386562286785
100
AcDbArc
 50
188.6338504038
 51
211.938656767
  0
LINE
  5
4AA
330
1F
100
AcDbEntity
  8
0
  6
Continuous
 62
     7
370
    25
100
AcDbLine
 10
2365.41478178
 20
1623.3508847622
 30
0.0
 11
2365.2991790947
 21
1623.3383502213
 31
0.0
  0
LWPOLYLINE
  5
4AB
330
1F
100
AcDbEntity
  8
0
  6
Continuous
 62
     7
370
    25
100
AcDbPolyline
 90
        9
 70
   128
 43
0.0
 10
2368.518796014
 20
1623.350884756
 10
2368.5910271595
 20
1623.3237568908
 10
2368.6493592153
 20
1623.3043796473
 10
2368.6926257093
 20
1623.2926843938
 10
2368.7203371521
 20
1623.2887457571
 10
2368.7327986235
 20
1623.2926780721
 10
2368.7293632579
 20
1623.3043719026
 10
2368.7088956091
 20
1623.3237515717
 10
2368.6708140711
 20
1623.3508847622
  0
ARC
  5
4AC
330
1F
100
AcDbEntity
  8
0
  6
Continuous
 62
     7
370
    25
100
AcDbCircle
 10
2350.8316564044
 20
1609.431133355
 30
0.0
 40
6.752098515273397
100
AcDbArc
 50
162.0921195466
 51
171.7423680327
  0
LWPOLYLINE
  5
4AD
330
1F
100
AcDbEntity
  8
0
  6
Continuous
 62
     7
370
    25
100
AcDbPolyline
 90
       11
 70
   128
 43
0.0
 10
2344.4066827403
 20
1611.5073192273
 10
2344.4066594703
 20
1611.5072231655
 10
2344.4064798887
 20
1611.5064306948
 10
2344.4059843126
 20
1611.5041974017
 10
2344.4041149868
 20
1611.4956965337
 10
2344.3968636406
 20
1611.4625576703
 10
2344.1846535027
 20
1610.5023606508
 10
2343.9776692863
 20
1609.6204645407
 10
2343.7794441405
 20
1608.8690729545
 10
2343.4425707089
 20
1607.9106711555
 10
2343.0843930595
 20
1607.5073192273
  0
LINE
  5
4AE
330
1F
100
AcDbEntity
  8
0
  6
Continuous
 62
     7
370
    25
100
AcDbLine
 10
2344.4066827403
 20
1602.5073192273
 30
0.0
 11
2319.8078514196
 21
1602.5073192272
 31
0.0
  0
LINE
  5
4AF
330
1F
100
AcDbEntity
  8
0
  6
Continuous
 62
     7
370
    25
100
AcDbLine
 10
2319.8078514196
 20
1607.5073192272
 30
0.0
 11
2319.8078514196
 21
1602.5073192272
 31
0.0
  0
LINE
  5
4B0
330
1F
100
AcDbEntity
  8
0
  6
Continuous
 62
     7
370
    25
100
AcDbLine
 10
2343.0843930595
 20
1607.5073192273
 30
0.0
 11
2319.8078514196
 21
1607.5073192272
 31
0.0
  0
LINE
  5
4B1
330
1F
100
AcDbEntity
  8
0
  6
Continuous
 62
     7
370
    25
100
AcDbLine
 10
2320.8009980524
 20
1601.5073192272
 30
0.0
 11
2319.8078514196
 21
1602.5073192272
 31
0.0
  0
LINE
  5
4B2
330
1F
100
AcDbEntity
  8
0
  6
Continuous
 62
     7
370
    25
100
AcDbLine
 10
2345.3998293732
 20
1601.5073192273
 30
0.0
 11
2320.8009980524
 21
1601.5073192272
 31
0.0
  0
ARC
  5
4B3
330
1F
100
AcDbEntity
  8
0
  6
Continuous
 62
     7
370
    25
100
AcDbCircle
 10
2349.0207835303
 20
1623.4248760933
 30
0.0
 40
0.9191498472671176
100
AcDbArc
 50
273.3737472448
 51
355.3827081648
  0
LINE
  5
4B4
330
1F
100
AcDbEntity
  8
0
  6
Continuous
 62
     7
370
    25
100
AcDbLine
 10
2320.8009980524
 20
1608.5073192272
 30
0.0
 11
2319.8078514196
 21
1607.5073192272
 31
0.0
  0
LINE
  5
4B5
330
1F
100
AcDbEntity
  8
0
  6
Continuous
 62
     7
370
    25
100
AcDbLine
 10
2320.8009980524
 20
1608.5073192272
 30
0.0
 11
2343.6522895175
 21
1608.5073192273
 31
0.0
  0
LINE
  5
4B6
330
1F
100
AcDbEntity
  8
0
  6
Continuous
 62
     7
370
    25
100
AcDbLine
 10
2319.6953816277
 20
1602.5073192272
 30
0.0
 11
2319.8078514196
 21
1602.5073192272
 31
0.0
  0
LINE
  5
4B7
330
1F
100
AcDbEntity
  8
0
  6
Continuous
 62
     7
370
    25
100
AcDbLine
 10
2319.6953816277
 20
1602.5073192272
 30
0.0
 11
2319.6953816277
 21
1607.5073192272
 31
0.0
  0
LINE
  5
4B8
330
1F
100
AcDbEntity
  8
0
  6
Continuous
 62
     7
370
    25
100
AcDbLine
 10
2319.8078514196
 20
1607.5073192272
 30
0.0
 11
2319.6953816277
 21
1607.5073192272
 31
0.0
  0
LINE
  5
4B9
330
1F
100
AcDbEntity
  8
0
  6
Continuous
 62
     7
370
    25
100
AcDbLine
 10
2320.6907776564
 20
1601.5073192272
 30
0.0
 11
2319.6953816277
 21
1602.5073192272
 31
0.0
  0
LINE
  5
4BA
330
1F
100
AcDbEntity
  8
0
  6
Continuous
 62
     7
370
    25
100
AcDbLine
 10
2320.8009980524
 20
1601.5073192272
 30
0.0
 11
2320.6907776564
 21
1601.5073192272
 31
0.0
  0
LINE
  5
4BB
330
1F
100
AcDbEntity
  8
0
  6
Continuous
 62
     7
370
    25
100
AcDbLine
 10
2319.6953816277
 20
1607.5073192272
 30
0.0
 11
2320.6907776564
 21
1608.5073192272
 31
0.0
  0
LINE
  5
4BC
330
1F
100
AcDbEntity
  8
0
  6
Continuous
 62
     7
370
    25
100
AcDbLine
 10
2320.6907776564
 20
1608.5073192272
 30
0.0
 11
2320.8009980524
 21
1608.5073192272
 31
0.0
  0
LINE
  5
4BD
330
1F
100
AcDbEntity
  8
0
  6
Continuous
 62
     7
370
    25
100
AcDbLine
 10
2302.5999219455
 20
1601.5073192272
 30
0.0
 11
2301.6045259168
 21
1602.5073192272
 31
0.0
  0
LINE
  5
4BE
330
1F
100
AcDbEntity
  8
0
  6
Continuous
 62
     7
370
    25
100
AcDbLine
 10
2319.6953816277
 20
1602.5073192272
 30
0.0
 11
2301.6045259168
 21
1602.5073192272
 31
0.0
  0
LINE
  5
4BF
330
1F
100
AcDbEntity
  8
0
  6
Continuous
 62
     7
370
    25
100
AcDbLine
 10
2320.6907776564
 20
1601.5073192272
 30
0.0
 11
2302.5999219455
 21
1601.5073192272
 31
0.0
  0
LINE
  5
4C0
330
1F
100
AcDbEntity
  8
0
  6
Continuous
 62
     7
370
    25
100
AcDbLine
 10
2301.6045259168
 20
1607.5073192272
 30
0.0
 11
2302.5999219455
 21
1608.5073192272
 31
0.0
  0
LINE
  5
4C1
330
1F
100
AcDbEntity
  8
0
  6
Continuous
 62
     7
370
    25
100
AcDbLine
 10
2319.6953816277
 20
1607.5073192272
 30
0.0
 11
2301.6045259168
 21
1607.5073192272
 31
0.0
  0
LINE
  5
4C2
330
1F
100
AcDbEntity
  8
0
  6
Continuous
 62
     7
370
    25
100
AcDbLine
 10
2302.5999219455
 20
1608.5073192272
 30
0.0
 11
2320.6907776564
 21
1608.5073192272
 31
0.0
  0
LINE
  5
4C3
330
1F
100
AcDbEntity
  8
0
  6
Continuous
 62
     7
370
    25
100
AcDbLine
 10
2301.6045259168
 20
1602.5073192272
 30
0.0
 11
2301.6045259168
 21
1607.5073192272
 31
0.0
  0
LINE
  5
4C4
330
1F
100
AcDbEntity
  8
0
  6
Continuous
 62
     7
370
    25
100
AcDbLine
 10
2301.6045259168
 20
1602.5073192272
 30
0.0
 11
2301.5538822325
 21
1602.5073192272
 31
0.0
  0
LINE
  5
4C5
330
1F
100
AcDbEntity
  8
0
  6
Continuous
 62
     7
370
    25
100
AcDbLine
 10
2302.5999219455
 20
1601.5073192272
 30
0.0
 11
2302.5538822325
 21
1601.5073192272
 31
0.0
  0
LINE
  5
4C6
330
1F
100
AcDbEntity
  8
0
  6
Continuous
 62
     7
370
    25
100
AcDbLine
 10
2301.6045259168
 20
1607.5073192272
 30
0.0
 11
2301.5538822325
 21
1607.5073192272
 31
0.0
  0
LINE
  5
4C7
330
1F
100
AcDbEntity
  8
0
  6
Continuous
 62
     7
370
    25
100
AcDbLine
 10
2302.5538822325
 20
1608.5073192271
 30
0.0
 11
2302.5999219455
 21
1608.5073192272
 31
0.0
  0
LINE
  5
4C8
330
1F
100
AcDbEntity
  8
0
  6
Continuous
 62
     7
370
    25
100
AcDbLine
 10
2299.8038822311
 20
1582.5073192333
 30
0.0
 11
2299.8038822311
 21
1582.0073192333
 31
0.0
  0
LINE
  5
4C9
330
1F
100
AcDbEntity
  8
0
  6
Continuous
 62
     7
370
    25
100
AcDbLine
 10
2299.8038822311
 20
1582.5073192333
 30
0.0
 11
2326.8038822311
 21
1582.5073192333
 31
0.0
  0
LINE
  5
4CA
330
1F
100
AcDbEntity
  8
0
  6
Continuous
 62
     7
370
    25
100
AcDbLine
 10
2326.8038822311
 20
1582.0073192333
 30
0.0
 11
2326.8038822311
 21
1582.5073192333
 31
0.0
  0
LINE
  5
4CB
330
1F
100
AcDbEntity
  8
0
  6
Continuous
 62
     7
370
    25
100
AcDbLine
 10
2299.8038822311
 20
1582.0073192333
 30
0.0
 11
2326.8038822311
 21
1582.0073192333
 31
0.0
  0
LINE
  5
4CC
330
1F
100
AcDbEntity
  8
0
  6
Continuous
 62
     7
370
    25
100
AcDbLine
 10
2299.3038822311
 20
1582.5073192333
 30
0.0
 11
2299.8038822311
 21
1582.5073192333
 31
0.0
  0
ARC
  5
4CD
330
1F
100
AcDbEntity
  8
0
  6
Continuous
 62
     7
370
    25
100
AcDbCircle
 10
2299.8038822311
 20
1582.5073192333
 30
0.0
 40
0.5
100
AcDbArc
 50
180.0
 51
270.0000000001
  0
LINE
  5
4CE
330
1F
100
AcDbEntity
  8
0
  6
Continuous
 62
     7
370
    25
100
AcDbLine
 10
2326.8038822311
 20
1598.5073192333
 30
0.0
 11
2326.8038822311
 21
1599.0073192333
 31
0.0
  0
LINE
  5
4CF
330
1F
100
AcDbEntity
  8
0
  6
Continuous
 62
     7
370
    25
100
AcDbLine
 10
2326.8038822311
 20
1598.5073192333
 30
0.0
 11
2299.8038822311
 21
1598.5073192333
 31
0.0
  0
LINE
  5
4D0
330
1F
100
AcDbEntity
  8
0
  6
Continuous
 62
     7
370
    25
100
AcDbLine
 10
2299.8038822311
 20
1599.0073192333
 30
0.0
 11
2299.8038822311
 21
1598.5073192333
 31
0.0
  0
LINE
  5
4D1
330
1F
100
AcDbEntity
  8
0
  6
Continuous
 62
     7
370
    25
100
AcDbLine
 10
2326.8038822311
 20
1599.0073192333
 30
0.0
 11
2299.8038822311
 21
1599.0073192333
 31
0.0
  0
LINE
  5
4D2
330
1F
100
AcDbEntity
  8
0
  6
Continuous
 62
     7
370
    25
100
AcDbLine
 10
2299.8038822311
 20
1598.5073192333
 30
0.0
 11
2299.3038822311
 21
1598.5073192333
 31
0.0
  0
LINE
  5
4D3
330
1F
100
AcDbEntity
  8
0
  6
Continuous
 62
     7
370
    25
100
AcDbLine
 10
2299.8038822311
 20
1598.5073192333
 30
0.0
 11
2299.8038822311
 21
1582.5073192333
 31
0.0
  0
LINE
  5
4D4
330
1F
100
AcDbEntity
  8
0
  6
Continuous
 62
     7
370
    25
100
AcDbLine
 10
2299.3038822311
 20
1598.5073192333
 30
0.0
 11
2299.3038822311
 21
1582.5073192333
 31
0.0
  0
ARC
  5
4D5
330
1F
100
AcDbEntity
  8
0
  6
Continuous
 62
     7
370
    25
100
AcDbCircle
 10
2299.8038822311
 20
1598.5073192333
 30
0.0
 40
0.5000000000002274
100
AcDbArc
 50
89.9999999999
 51
180.0
  0
LINE
  5
4D6
330
1F
100
AcDbEntity
  8
0
  6
Continuous
 62
     7
370
    25
100
AcDbLine
 10
2326.8038822311
 20
1582.5073192333
 30
0.0
 11
2326.8038822311
 21
1598.5073192333
 31
0.0
  0
LINE
  5
4D7
330
1F
100
AcDbEntity
  8
0
  6
Continuous
 62
     7
370
    25
100
AcDbLine
 10
2327.3038822311
 20
1598.5073192333
 30
0.0
 11
2326.8038822311
 21
1598.5073192333
 31
0.0
  0
LINE
  5
4D8
330
1F
100
AcDbEntity
  8
0
  6
Continuous
 62
     7
370
    25
100
AcDbLine
 10
2327.3038822311
 20
1582.5073192333
 30
0.0
 11
2327.3038822311
 21
1598.5073192333
 31
0.0
  0
LINE
  5
4D9
330
1F
100
AcDbEntity
  8
0
  6
Continuous
 62
     7
370
    25
100
AcDbLine
 10
2326.8038822311
 20
1582.5073192333
 30
0.0
 11
2327.3038822311
 21
1582.5073192333
 31
0.0
  0
ARC
  5
4DA
330
1F
100
AcDbEntity
  8
0
  6
Continuous
 62
     7
370
    25
100
AcDbCircle
 10
2326.8038822311
 20
1598.5073192333
 30
0.0
 40
0.5
100
AcDbArc
 50
0.0
 51
90.0
  0
ARC
  5
4DB
330
1F
100
AcDbEntity
  8
0
  6
Continuous
 62
     7
370
    25
100
AcDbCircle
 10
2326.8038822311
 20
1582.5073192333
 30
0.0
 40
0.5000000000009095
100
AcDbArc
 50
270.0
 51
0.0
  0
LINE
  5
4DC
330
1F
100
AcDbEntity
  8
0
  6
Continuous
 62
     7
370
    25
100
AcDbLine
 10
2344.3038822333
 20
1611.5073192273
 30
0.0
 11
2344.4066827403
 21
1611.5073192273
 31
0.0
  0
LINE
  5
4DD
330
1F
100
AcDbEntity
  8
0
  6
Continuous
 62
     7
370
    25
100
AcDbLine
 10
2357.0005758423
 20
1624.2513032582
 30
0.0
 11
2356.9457011274
 21
1623.3508847623
 31
0.0
  0
LINE
  5
4DE
330
1F
100
AcDbEntity
  8
0
  6
Continuous
 62
     7
370
    25
100
AcDbLine
 10
2356.4080585664
 20
1623.3508847622
 30
0.0
 11
2356.4629332794
 21
1624.2513032582
 31
0.0
  0
LINE
  5
4DF
330
1F
100
AcDbEntity
  8
0
  6
Continuous
 62
     7
370
    25
100
AcDbLine
 10
2354.7680914189
 20
1624.2513032582
 30
0.0
 11
2354.6724457452
 21
1623.3508847622
 31
0.0
  0
LINE
  5
4E0
330
1F
100
AcDbEntity
  8
0
  6
Continuous
 62
     7
370
    25
100
AcDbLine
 10
2360.0497153278
 20
1623.3508847623
 30
0.0
 11
2360.03167422
 21
1624.2513032582
 31
0.0
  0
LINE
  5
4E1
330
1F
100
AcDbEntity
  8
0
  6
Continuous
 62
     7
370
    25
100
AcDbLine
 10
2363.7721537028
 20
1623.3508847622
 30
0.0
 11
2363.6737238973
 21
1624.2513032582
 31
0.0
  0
LINE
  5
4E2
330
1F
100
AcDbEntity
  8
0
  6
Continuous
 62
     7
370
    25
100
AcDbLine
 10
2360.3319794868
 20
1624.2513032582
 30
0.0
 11
2360.3500205945
 21
1623.3508847622
 31
0.0
  0
LINE
  5
4E3
330
1F
100
AcDbEntity
  8
0
  6
Continuous
 62
     7
370
    25
100
AcDbLine
 10
2364.1613876017
 20
1624.2513032582
 30
0.0
 11
2364.2598174035
 21
1623.3508847623
 31
0.0
  0
LINE
  5
4E4
330
1F
100
AcDbEntity
  8
0
  6
Continuous
 62
     7
370
    25
100
AcDbLine
 10
2365.2274233109
 20
1623.3508847622
 30
0.0
 11
2365.1062636579
 21
1624.2513032582
 31
0.0
  0
LINE
  5
4E5
330
1F
100
AcDbEntity
  8
0
  6
Continuous
 62
     7
370
    25
100
AcDbLine
 10
2354.4351084332
 20
1623.3508847622
 30
0.0
 11
2354.5307541069
 21
1624.2513032582
 31
0.0
  0
LINE
  5
4E6
330
1F
100
AcDbEntity
  8
0
  6
Continuous
 62
     7
370
    25
100
AcDbLine
 10
2351.1890097284
 20
1624.2513032582
 30
0.0
 11
2351.0129753606
 21
1623.3508847622
 31
0.0
  0
LINE
  5
4E7
330
1F
100
AcDbEntity
  8
0
  6
Continuous
 62
     7
370
    25
100
AcDbLine
 10
2365.293622127
 20
1624.2513032582
 30
0.0
 11
2365.41478178
 21
1623.3508847622
 31
0.0
  0
LINE
  5
4E8
330
1F
100
AcDbEntity
  8
0
  6
Continuous
 62
     7
370
    25
100
AcDbLine
 10
2368.5187960127
 20
1623.3508847622
 30
0.0
 11
2368.3247205338
 21
1624.2513032582
 31
0.0
  0
LINE
  5
4E9
330
1F
100
AcDbEntity
  8
0
  6
Continuous
 62
     7
370
    25
100
AcDbLine
 10
2349.9369503954
 20
1623.3508847622
 30
0.0
 11
2350.7251291443
 21
1623.3508847622
 31
0.0
  0
LINE
  5
4EA
330
1F
100
AcDbEntity
  8
0
  6
Continuous
 62
     7
370
    25
100
AcDbLine
 10
2350.131025871
 20
1624.2513032582
 30
0.0
 11
2349.9369503954
 21
1623.3508847622
 31
0.0
  0
LWPOLYLINE
  5
4EB
330
1F
100
AcDbEntity
  8
0
  6
Continuous
 62
     7
370
    25
100
AcDbPolyline
 90
        3
 70
   128
 43
0.0
 10
2349.8764476672
 20
1623.2975775583
 10
2349.8799018953
 20
1623.3060001065
 10
2349.9369503954
 20
1623.3508847622
  0
LINE
  5
4EC
330
1F
100
AcDbEntity
  8
FORMAT
370
    25
100
AcDbLine
 10
2349.3038822335
 20
1818.0596818114
 30
0.0
 11
2349.3038822335
 21
1896.6386666827
 31
0.0
  0
LINE
  5
4ED
330
1F
100
AcDbEntity
  8
FORMAT
370
    25
100
AcDbLine
 10
2269.3038822335
 20
1818.0596818114
 30
0.0
 11
2269.3038822335
 21
1896.6386666827
 31
0.0
  0
DIMENSION
  5
4EE
330
1F
100
AcDbEntity
  8
FORMAT
100
AcDbDimension
  2
_D_20
 10
2349.3038822335
 20
1871.8615092909
 30
0.0
 11
2431.4224610179
 21
1871.8615092909
 31
0.0
 70
   160
  1
max. +<>
 71
     2
 42
-1.0
  3
SLDDIMSTYLE4
100
AcDbAlignedDimension
 13
2299.3038822335
 23
1812.5073192271
 33
0.0
 14
2349.3038822335
 24
1896.6386666827
 34
0.0
 50
0.0
100
AcDbRotatedDimension
  0
DIMENSION
  5
4FF
330
1F
100
AcDbEntity
  8
FORMAT
100
AcDbDimension
  2
_D_21
 10
2269.3038822335
 20
1871.8615092909
 30
0.0
 11
2191.8322245132
 21
1871.8615092909
 31
0.0
 70
   160
  1
max. -<>
 71
     2
 42
-1.0
  3
SLDDIMSTYLE4
100
AcDbAlignedDimension
 13
2299.3038822335
 23
1812.5073192271
 33
0.0
 14
2269.3038822335
 24
1896.6386666827
 34
0.0
 50
0.0
100
AcDbRotatedDimension
  0
DIMENSION
  5
50A
330
1F
100
AcDbEntity
  8
FORMAT
100
AcDbDimension
  2
_D_22
 10
2327.3038822311
 20
1535.6833659632
 30
0.0
 11
2378.2750744051
 21
1535.6833659632
 31
0.0
 70
   160
  1
<>
 71
     2
 42
-1.0
  3
SLDDIMSTYLE1
100
AcDbAlignedDimension
 13
2299.3038822335
 23
1607.5073192271
 33
0.0
 14
2327.3038822311
 24
1582.5073192333
 34
0.0
100
AcDbRotatedDimension
  0
DIMENSION
  5
515
330
1F
100
AcDbEntity
  8
FORMAT
100
AcDbDimension
  2
_D_23
 10
2419.3038822331
 20
1482.3892867327
 30
0.0
 11
2359.3038822333
 21
1482.3892867327
 31
0.0
 70
   160
  1
<>
 71
     2
 42
-1.0
  3
SLDDIMSTYLE0
100
AcDbAlignedDimension
 13
2299.3038822335
 23
1607.5073192271
 33
0.0
 14
2419.3038822331
 24
1639.0073192271
 34
0.0
100
AcDbRotatedDimension
  0
DIMENSION
  5
51E
330
1F
100
AcDbEntity
  8
FORMAT
100
AcDbDimension
  2
_D_24
 10
2489.3038822331
 20
1729.0073192271
 30
0.0
 11
2489.3038822331
 21
1655.5073192302
 31
0.0
 70
   160
  1
<>
 71
     2
 42
-1.0
  3
SLDDIMSTYLE0
100
AcDbAlignedDimension
 13
2326.8038822311
 23
1582.0073192333
 33
0.0
 14
2414.3038822331
 24
1729.0073192271
 34
0.0
 50
90.0
100
AcDbRotatedDimension
  0
DIMENSION
  5
528
330
1F
100
AcDbEntity
  8
FORMAT
100
AcDbDimension
  2
_D_25
 10
2191.8322245132
 20
1730.0073192271
 30
0.0
 11
2191.8322245132
 21
1671.2573192271
 31
0.0
 70
   160
  1
<>
 71
     2
 42
-1.0
  3
SLDDIMSTYLE0
100
AcDbAlignedDimension
 13
2269.3038822335
 23
1612.5073192271
 33
0.0
 14
2300.3038822331
 24
1730.0073192271
 34
0.0
 50
90.0
100
AcDbRotatedDimension
  0
MTEXT
  5
532
330
1F
100
AcDbEntity
  8
FORMAT
100
AcDbMText
 10
2269.0348350302
 20
1984.5586986143
 30
0.0
 40
35.0
 41
0.0
 71
     2
 72
     1
  1
A-A
  7
SLDTEXTSTYLE0
 73
     1
 44
1.0
  0
MTEXT
  5
533
330
1F
100
AcDbEntity
  8
FORMAT
100
AcDbMText
 10
2290.6127592222
 20
1908.1063368926
 30
0.0
 40
18.5208333333
 41
0.0
 71
     1
 72
     1
  1
**
  7
SLDTEXTSTYLE0
 73
     1
 44
1.0
  0
MTEXT
  5
534
330
1F
100
AcDbEntity
  8
FORMAT
100
AcDbMText
 10
2228.9720884333
 20
1295.1612580729
 30
0.0
 40
18.5208333333
 41
0.0
 71
     1
 72
     1
  1
** Sturztiefe
  7
SLDTEXTSTYLE0
 73
     1
 44
1.0
  0
CIRCLE
  5
535
330
1F
100
AcDbEntity
  8
0
  6
Continuous
 62
     7
370
    18
100
AcDbCircle
 10
2286.4148513715
 20
1689.6830994074
 30
0.0
 40
147.3897407954614
  0
MTEXT
  5
536
330
1F
100
AcDbEntity
  8
0
  6
Continuous
 62
     7
370
    18
100
AcDbMText
 10
2435.818967102
 20
1802.0839615902
 30
0.0
 40
35.0
 41
0.0
 71
     1
 72
     1
  1
B
  7
SLDTEXTSTYLE0
 73
     1
 44
1.0
  0
LINE
  5
537
330
1F
100
AcDbEntity
  8
0
  6
Continuous
 62
     7
370
    25
100
AcDbLine
 10
2425.7521704602
 20
728.4879006391
 30
0.0
 11
2425.7521704602
 21
742.1463251059
 31
0.0
  0
LINE
  5
538
330
1F
100
AcDbEntity
  8
0
  6
Continuous
 62
     7
370
    25
100
AcDbLine
 10
2383.7521687912
 20
740.7463222688
 30
0.0
 11
2383.7521687912
 21
728.4879006391
 31
0.0
  0
LINE
  5
539
330
1F
100
AcDbEntity
  8
0
  6
Continuous
 62
     7
370
    25
100
AcDbLine
 10
2436.9521670806
 20
875.146323437
 30
0.0
 11
2436.9521670806
 21
876.5463262742
 31
0.0
  0
LINE
  5
53A
330
1F
100
AcDbEntity
  8
0
  6
Continuous
 62
     7
370
    25
100
AcDbLine
 10
2329.502168374
 20
695.9463201409
 30
0.0
 11
2329.502168374
 21
693.1463196819
 31
0.0
  0
LINE
  5
53B
330
1F
100
AcDbEntity
  8
0
  6
Continuous
 62
     7
370
    25
100
AcDbLine
 10
2349.1021696309
 20
693.1463196819
 30
0.0
 11
2349.1021696309
 21
695.9463201409
 31
0.0
  0
LINE
  5
53C
330
1F
100
AcDbEntity
  8
0
  6
Continuous
 62
     7
370
    25
100
AcDbLine
 10
2346.302169172
 20
695.9463201409
 30
0.0
 11
2346.302169172
 21
696.6463215595
 31
0.0
  0
LINE
  5
53D
330
1F
100
AcDbEntity
  8
0
  6
Continuous
 62
     7
370
    25
100
AcDbLine
 10
2332.302168833
 20
696.6463215595
 30
0.0
 11
2332.302168833
 21
695.9463201409
 31
0.0
  0
LINE
  5
53E
330
1F
100
AcDbEntity
  8
0
  6
Continuous
 62
     7
370
    25
100
AcDbLine
 10
2383.7521687912
 20
725.766319031
 30
0.0
 11
2383.7521687912
 21
710.6463186388
 31
0.0
  0
LINE
  5
53F
330
1F
100
AcDbEntity
  8
0
  6
Continuous
 62
     7
370
    25
100
AcDbLine
 10
2425.7521704602
 20
698.0463191812
 30
0.0
 11
2425.7521704602
 21
725.766319031
 31
0.0
  0
LINE
  5
540
330
1F
100
AcDbEntity
  8
0
  6
Continuous
 62
     7
370
    25
100
AcDbLine
 10
2424.352167623
 20
696.6463215595
 30
0.0
 11
2425.7521704602
 21
698.0463191812
 31
0.0
  0
LINE
  5
541
330
1F
100
AcDbEntity
  8
0
  6
Continuous
 62
     7
370
    25
100
AcDbLine
 10
2425.7521704602
 20
725.766319031
 30
0.0
 11
2425.4721709358
 21
726.0463185554
 31
0.0
  0
LINE
  5
542
330
1F
100
AcDbEntity
  8
0
  6
Continuous
 62
     7
370
    25
100
AcDbLine
 10
2384.0321683156
 20
726.0463185554
 30
0.0
 11
2383.7521687912
 21
725.766319031
 31
0.0
  0
LWPOLYLINE
  5
543
330
1F
100
AcDbEntity
  8
0
  6
Continuous
 62
     7
370
    25
100
AcDbPolyline
 90
       12
 70
   128
 43
0.0
 10
2392.7321755158
 20
727.1774932688
 10
2392.5782088953
 20
726.7588265186
 10
2392.3197385686
 20
726.4281332438
 10
2392.1643898654
 20
726.3016387766
 10
2392.0050070452
 20
726.2044861858
 10
2391.8561593461
 20
726.1360965615
 10
2391.732131766
 20
726.0920837467
 10
2391.6465339082
 20
726.0664813166
 10
2391.6123417037
 20
726.0534115081
 10
2391.6415036487
 20
726.0479509776
 10
2391.7435404676
 20
726.0464228635
 10
2391.8633487838
 20
726.0463550632
  0
LINE
  5
544
330
1F
100
AcDbEntity
  8
0
  6
Continuous
 62
     7
370
    25
100
AcDbLine
 10
2392.9883641022
 20
728.4879006391
 30
0.0
 11
2392.7137912082
 21
727.0834490602
 31
0.0
  0
LWPOLYLINE
  5
545
330
1F
100
AcDbEntity
  8
0
  6
Continuous
 62
     7
370
    25
100
AcDbPolyline
 90
        4
 70
   128
 43
0.0
 10
2419.0745831298
 20
726.0463498478
 10
2419.1300333309
 20
726.0463863557
 10
2419.165915327
 20
726.0478571003
 10
2419.1648931074
 20
726.0480761473
  0
ARC
  5
546
330
1F
100
AcDbEntity
  8
0
  6
Continuous
 62
     7
370
    25
100
AcDbCircle
 10
2419.3420080665
 20
727.4619731379
 30
0.0
 40
1.422867958275378
100
AcDbArc
 50
192.614243731
 51
261.832694584
  0
LWPOLYLINE
  5
547
330
1F
100
AcDbEntity
  8
0
  6
Continuous
 62
     7
370
    25
100
AcDbPolyline
 90
        3
 70
   128
 43
0.0
 10
2383.539111616
 20
709.1657899266
 10
2383.4492501634
 20
708.6847364848
 10
2383.3290063607
 20
708.1410564428
  0
LINE
  5
548
330
1F
100
AcDbEntity
  8
0
  6
Continuous
 62
     7
370
    25
100
AcDbLine
 10
2417.9534897971
 20
727.1512336974
 30
0.0
 11
2417.6653855311
 21
728.4879006391
 31
0.0
  0
ARC
  5
549
330
1F
100
AcDbEntity
  8
0
  6
Continuous
 62
     7
370
    25
100
AcDbCircle
 10
2379.5521829709
 20
710.6463222942
 30
0.0
 40
4.199985820377377
100
AcDbArc
 50
347.4491213423
 51
359.9999501334
  0
LINE
  5
54A
330
1F
100
AcDbEntity
  8
0
  6
Continuous
 62
     7
370
    25
100
AcDbLine
 10
2391.8389537203
 20
728.4879006391
 30
0.0
 11
2391.5508520621
 21
727.1512336974
 31
0.0
  0
ARC
  5
54B
330
1F
100
AcDbEntity
  8
0
  6
Continuous
 62
     7
370
    25
100
AcDbCircle
 10
2390.1090179239
 20
727.4924420372
 30
0.0
 40
1.481656253690805
100
AcDbArc
 50
282.5733271633
 51
346.686151955
  0
LINE
  5
54C
330
1F
100
AcDbEntity
  8
0
  6
Continuous
 62
     7
370
    25
100
AcDbLine
 10
2323.9021700638
 20
698.0463191812
 30
0.0
 11
2325.3021702933
 21
696.6463215595
 31
0.0
  0
LINE
  5
54D
330
1F
100
AcDbEntity
  8
0
  6
Continuous
 62
     7
370
    25
100
AcDbLine
 10
2325.3021702933
 20
706.4463205581
 30
0.0
 11
2323.9021700638
 21
705.0463229363
 31
0.0
  0
LINE
  5
54E
330
1F
100
AcDbEntity
  8
0
  6
Continuous
 62
     7
370
    25
100
AcDbLine
 10
2323.9021700638
 20
705.0463229363
 30
0.0
 11
2323.9021700638
 21
698.0463191812
 31
0.0
  0
ARC
  5
54F
330
1F
100
AcDbEntity
  8
0
  6
Continuous
 62
     7
370
    18
100
AcDbCircle
 10
2302.7075246965
 20
820.092392175
 30
0.0
 40
206.345617638607
100
AcDbArc
 50
247.2020449862
 51
275.0168462549
  0
LINE
  5
550
330
1F
100
AcDbEntity
  8
0
  6
Continuous
 62
     7
370
    25
100
AcDbLine
 10
2222.752171086
 20
629.8671169152
 30
0.0
 11
2222.752171086
 21
740.0463208502
 31
0.0
  0
LINE
  5
551
330
1F
100
AcDbEntity
  8
0
  6
Continuous
 62
     7
370
    25
100
AcDbLine
 10
2278.7521698343
 20
705.0463229363
 30
0.0
 11
2278.7521698343
 21
740.0463208502
 31
0.0
  0
LINE
  5
552
330
1F
100
AcDbEntity
  8
0
  6
Continuous
 62
     7
370
    25
100
AcDbLine
 10
2278.7521698343
 20
705.0463229363
 30
0.0
 11
2320.7521688956
 21
705.0463229363
 31
0.0
  0
LINE
  5
553
330
1F
100
AcDbEntity
  8
0
  6
Continuous
 62
     7
370
    25
100
AcDbLine
 10
2320.7521688956
 20
705.0463229363
 30
0.0
 11
2320.7521688956
 21
692.4463182633
 31
0.0
  0
LINE
  5
554
330
1F
100
AcDbEntity
  8
0
  6
Continuous
 62
     7
370
    25
100
AcDbLine
 10
2320.7521688956
 20
670.0463198071
 30
0.0
 11
2320.7521688956
 21
614.5372785573
 31
0.0
  0
LINE
  5
555
330
1F
100
AcDbEntity
  8
0
  6
Continuous
 62
     7
370
    25
100
AcDbLine
 10
2222.752171086
 20
740.0463208502
 30
0.0
 11
2278.7521698343
 21
740.0463208502
 31
0.0
  0
LINE
  5
556
330
1F
100
AcDbEntity
  8
0
  6
Continuous
 62
     7
370
    25
100
AcDbLine
 10
2320.7521688956
 20
992.0463204329
 30
0.0
 11
2320.7521688956
 21
875.146323437
 31
0.0
  0
LINE
  5
557
330
1F
100
AcDbEntity
  8
0
  6
Continuous
 62
     7
370
    25
100
AcDbLine
 10
2320.7521688956
 20
742.1463251059
 30
0.0
 11
2320.7521688956
 21
712.046321476
 31
0.0
  0
LINE
  5
558
330
1F
100
AcDbEntity
  8
0
  6
Continuous
 62
     7
370
    25
100
AcDbLine
 10
2320.7521688956
 20
712.046321476
 30
0.0
 11
2278.7521698343
 21
712.046321476
 31
0.0
  0
LINE
  5
559
330
1F
100
AcDbEntity
  8
0
  6
Continuous
 62
     7
370
    25
100
AcDbLine
 10
2278.7521698343
 20
712.046321476
 30
0.0
 11
2278.7521698343
 21
747.0463246053
 31
0.0
  0
LINE
  5
55A
330
1F
100
AcDbEntity
  8
0
  6
Continuous
 62
     7
370
    25
100
AcDbLine
 10
2278.7521698343
 20
747.0463246053
 30
0.0
 11
2222.752171086
 21
747.0463246053
 31
0.0
  0
LINE
  5
55B
330
1F
100
AcDbEntity
  8
0
  6
Continuous
 62
     7
370
    25
100
AcDbLine
 10
2222.752171086
 20
992.0463204329
 30
0.0
 11
2320.7521688956
 21
992.0463204329
 31
0.0
  0
LINE
  5
55C
330
1F
100
AcDbEntity
  8
0
  6
Continuous
 62
     7
370
    25
100
AcDbLine
 10
2222.752171086
 20
992.0463204329
 30
0.0
 11
2222.752171086
 21
747.0463246053
 31
0.0
  0
LINE
  5
55D
330
1F
100
AcDbEntity
  8
0
  6
Continuous
 62
     7
370
    25
100
AcDbLine
 10
2320.7521688956
 20
705.0463229363
 30
0.0
 11
2320.7521688956
 21
712.046321476
 31
0.0
  0
LINE
  5
55E
330
1F
100
AcDbEntity
  8
0
  6
Continuous
 62
     7
370
    25
100
AcDbLine
 10
2222.752171086
 20
747.0463246053
 30
0.0
 11
2222.752171086
 21
740.0463208502
 31
0.0
  0
LINE
  5
55F
330
1F
100
AcDbEntity
  8
0
  6
Continuous
 62
     7
370
    25
100
AcDbLine
 10
2386.2538792955
 20
728.4879006391
 30
0.0
 11
2425.7521704602
 21
728.4879006391
 31
0.0
  0
LINE
  5
560
330
1F
100
AcDbEntity
  8
0
  6
Continuous
 62
     7
370
    25
100
AcDbLine
 10
2383.7521687912
 20
728.4879006391
 30
0.0
 11
2386.2538792955
 21
728.4879006391
 31
0.0
  0
LINE
  5
561
330
1F
100
AcDbEntity
  8
0
  6
Continuous
 62
     7
370
    25
100
AcDbLine
 10
2322.152169125
 20
875.146323437
 30
0.0
 11
2322.152169125
 21
876.5463262742
 31
0.0
  0
LINE
  5
562
330
1F
100
AcDbEntity
  8
0
  6
Continuous
 62
     7
370
    25
100
AcDbLine
 10
2322.152169125
 20
876.5463262742
 30
0.0
 11
2404.7521696257
 21
876.5463262742
 31
0.0
  0
LINE
  5
563
330
1F
100
AcDbEntity
  8
0
  6
Continuous
 62
     7
370
    25
100
AcDbLine
 10
2404.7521696257
 20
876.5463262742
 30
0.0
 11
2404.7521696257
 21
875.146323437
 31
0.0
  0
LINE
  5
564
330
1F
100
AcDbEntity
  8
0
  6
Continuous
 62
     7
370
    25
100
AcDbLine
 10
2404.7521696257
 20
876.5463262742
 30
0.0
 11
2436.9521670806
 21
876.5463262742
 31
0.0
  0
LINE
  5
565
330
1F
100
AcDbEntity
  8
0
  6
Continuous
 62
     7
370
    25
100
AcDbLine
 10
2400.552171545
 20
742.1463251059
 30
0.0
 11
2400.552171545
 21
740.7463222688
 31
0.0
  0
LINE
  5
566
330
1F
100
AcDbEntity
  8
0
  6
Continuous
 62
     7
370
    25
100
AcDbLine
 10
2400.552171545
 20
740.7463222688
 30
0.0
 11
2322.152169125
 21
740.7463222688
 31
0.0
  0
LINE
  5
567
330
1F
100
AcDbEntity
  8
0
  6
Continuous
 62
     7
370
    25
100
AcDbLine
 10
2322.152169125
 20
740.7463222688
 30
0.0
 11
2322.152169125
 21
742.1463251059
 31
0.0
  0
LINE
  5
568
330
1F
100
AcDbEntity
  8
0
  6
Continuous
 62
     7
370
    25
100
AcDbLine
 10
2481.7521744239
 20
749.1463184302
 30
0.0
 11
2481.7521744239
 21
868.1463301127
 31
0.0
  0
LINE
  5
569
330
1F
100
AcDbEntity
  8
0
  6
Continuous
 62
     7
370
    25
100
AcDbLine
 10
2320.7521688956
 20
749.1463184302
 30
0.0
 11
2481.7521744239
 21
749.1463184302
 31
0.0
  0
LINE
  5
56A
330
1F
100
AcDbEntity
  8
0
  6
Continuous
 62
     7
370
    25
100
AcDbLine
 10
2320.7521688956
 20
868.1463301127
 30
0.0
 11
2320.7521688956
 21
749.1463184302
 31
0.0
  0
LINE
  5
56B
330
1F
100
AcDbEntity
  8
0
  6
Continuous
 62
     7
370
    25
100
AcDbLine
 10
2481.7521744239
 20
868.1463301127
 30
0.0
 11
2320.7521688956
 21
868.1463301127
 31
0.0
  0
LINE
  5
56C
330
1F
100
AcDbEntity
  8
0
  6
Continuous
 62
     7
370
    25
100
AcDbLine
 10
2337.5521690416
 20
849.946314091
 30
0.0
 11
2337.5521690416
 21
767.3463240211
 31
0.0
  0
ARC
  5
56D
330
1F
100
AcDbEntity
  8
0
  6
Continuous
 62
     7
370
    25
100
AcDbCircle
 10
2341.7521797388
 20
767.3463262068
 30
0.0
 40
4.200010697196945
100
AcDbArc
 50
180.0000298161
 51
269.9998634623
  0
LINE
  5
56E
330
1F
100
AcDbEntity
  8
0
  6
Continuous
 62
     7
370
    25
100
AcDbLine
 10
2341.75216973
 20
763.1463155096
 30
0.0
 11
2462.1521659958
 21
763.1463155096
 31
0.0
  0
ARC
  5
56F
330
1F
100
AcDbEntity
  8
0
  6
Continuous
 62
     7
370
    25
100
AcDbCircle
 10
2462.152152681
 20
767.3463373359
 30
0.0
 40
4.200021826323523
100
AcDbArc
 50
270.000181637
 51
359.999818363
  0
LINE
  5
570
330
1F
100
AcDbEntity
  8
0
  6
Continuous
 62
     7
370
    25
100
AcDbLine
 10
2466.3521745073
 20
767.3463240211
 30
0.0
 11
2466.3521745073
 21
849.946314091
 31
0.0
  0
ARC
  5
571
330
1F
100
AcDbEntity
  8
0
  6
Continuous
 62
     7
370
    25
100
AcDbCircle
 10
2462.1521704876
 20
849.9463185828
 30
0.0
 40
4.200004019732788
100
AcDbArc
 50
359.9999387234
 51
90.0000612766
  0
LINE
  5
572
330
1F
100
AcDbEntity
  8
0
  6
Continuous
 62
     7
370
    25
100
AcDbLine
 10
2462.1521659958
 20
854.1463226025
 30
0.0
 11
2341.75216973
 21
854.1463226025
 31
0.0
  0
ARC
  5
573
330
1F
100
AcDbEntity
  8
0
  6
Continuous
 62
     7
370
    25
100
AcDbCircle
 10
2341.7521619323
 20
849.9463297118
 30
0.0
 40
4.199992890730245
100
AcDbArc
 50
89.9998936243
 51
180.0002130973
  0
LINE
  5
574
330
1F
100
AcDbEntity
  8
0
  6
Continuous
 62
     7
370
    25
100
AcDbLine
 10
2481.7521744239
 20
872.3463177626
 30
0.0
 11
2332.6521695423
 21
872.3463177626
 31
0.0
  0
LINE
  5
575
330
1F
100
AcDbEntity
  8
0
  6
Continuous
 62
     7
370
    25
100
AcDbLine
 10
2481.7521744239
 20
868.1463301127
 30
0.0
 11
2481.7521744239
 21
872.3463177626
 31
0.0
  0
LINE
  5
576
330
1F
100
AcDbEntity
  8
0
  6
Continuous
 62
     7
370
    25
100
AcDbLine
 10
2320.7521688956
 20
868.1463301127
 30
0.0
 11
2320.7521688956
 21
872.3463177626
 31
0.0
  0
LINE
  5
577
330
1F
100
AcDbEntity
  8
0
  6
Continuous
 62
     7
370
    25
100
AcDbLine
 10
2325.6521683949
 20
872.3463177626
 30
0.0
 11
2320.7521688956
 21
872.3463177626
 31
0.0
  0
ARC
  5
578
330
1F
100
AcDbEntity
  8
0
  6
Continuous
 62
     7
370
    25
100
AcDbCircle
 10
2329.1521689686
 20
874.2129838037
 30
0.0
 40
3.966666878480528
100
AcDbArc
 50
208.0724750633
 51
331.9275249367
  0
LINE
  5
579
330
1F
100
AcDbEntity
  8
0
  6
Continuous
 62
     7
370
    25
100
AcDbLine
 10
2320.7521688956
 20
744.9463203495
 30
0.0
 11
2325.6521683949
 21
744.9463203495
 31
0.0
  0
LINE
  5
57A
330
1F
100
AcDbEntity
  8
0
  6
Continuous
 62
     7
370
    25
100
AcDbLine
 10
2320.7521688956
 20
744.9463203495
 30
0.0
 11
2320.7521688956
 21
749.1463184302
 31
0.0
  0
LINE
  5
57B
330
1F
100
AcDbEntity
  8
0
  6
Continuous
 62
     7
370
    25
100
AcDbLine
 10
2481.7521744239
 20
744.9463203495
 30
0.0
 11
2481.7521744239
 21
749.1463184302
 31
0.0
  0
LINE
  5
57C
330
1F
100
AcDbEntity
  8
0
  6
Continuous
 62
     7
370
    25
100
AcDbLine
 10
2332.6521695423
 20
744.9463203495
 30
0.0
 11
2481.7521744239
 21
744.9463203495
 31
0.0
  0
ARC
  5
57D
330
1F
100
AcDbEntity
  8
0
  6
Continuous
 62
     7
370
    25
100
AcDbCircle
 10
2329.1521689686
 20
743.0796543084
 30
0.0
 40
3.966666878480528
100
AcDbArc
 50
28.0724750633
 51
151.9275249367
  0
LINE
  5
57E
330
1F
100
AcDbEntity
  8
0
  6
Continuous
 62
     7
370
    25
100
AcDbLine
 10
2485.9521725046
 20
749.1463184302
 30
0.0
 11
2485.9521725046
 21
868.1463301127
 31
0.0
  0
LINE
  5
57F
330
1F
100
AcDbEntity
  8
0
  6
Continuous
 62
     7
370
    25
100
AcDbLine
 10
2481.7521744239
 20
749.1463184302
 30
0.0
 11
2485.9521725046
 21
749.1463184302
 31
0.0
  0
LINE
  5
580
330
1F
100
AcDbEntity
  8
0
  6
Continuous
 62
     7
370
    25
100
AcDbLine
 10
2485.9521725046
 20
868.1463301127
 30
0.0
 11
2481.7521744239
 21
868.1463301127
 31
0.0
  0
ARC
  5
581
330
1F
100
AcDbEntity
  8
0
  6
Continuous
 62
     7
370
    25
100
AcDbCircle
 10
2481.7521684849
 20
749.1463243692
 30
0.0
 40
4.200004019738678
100
AcDbArc
 50
270.0000810189
 51
359.9999189811
  0
ARC
  5
582
330
1F
100
AcDbEntity
  8
0
  6
Continuous
 62
     7
370
    25
100
AcDbCircle
 10
2481.7521684849
 20
868.1463137429
 30
0.0
 40
4.200004019786389
100
AcDbArc
 50
0.0002233151
 51
89.9999189808
  0
LINE
  5
583
330
1F
100
AcDbEntity
  8
0
  6
Continuous
 62
     7
370
    25
100
AcDbLine
 10
2320.7521688956
 20
875.146323437
 30
0.0
 11
2481.7521744239
 21
875.146323437
 31
0.0
  0
ARC
  5
584
330
1F
100
AcDbEntity
  8
0
  6
Continuous
 62
     7
370
    25
100
AcDbCircle
 10
2481.7521610486
 20
868.1463167374
 30
0.0
 40
7.000006699601317
100
AcDbArc
 50
0.0001094783
 51
89.9998905217
  0
LINE
  5
585
330
1F
100
AcDbEntity
  8
0
  6
Continuous
 62
     7
370
    25
100
AcDbLine
 10
2488.7521677482
 20
868.1463301127
 30
0.0
 11
2488.7521677482
 21
749.1463184302
 31
0.0
  0
ARC
  5
586
330
1F
100
AcDbEntity
  8
0
  6
Continuous
 62
     7
370
    25
100
AcDbCircle
 10
2481.7521788551
 20
749.146313999
 30
0.0
 40
6.999988893060201
100
AcDbArc
 50
269.9999637299
 51
0.0000362701
  0
LINE
  5
587
330
1F
100
AcDbEntity
  8
0
  6
Continuous
 62
     7
370
    25
100
AcDbLine
 10
2481.7521744239
 20
742.1463251059
 30
0.0
 11
2320.7521688956
 21
742.1463251059
 31
0.0
  0
LINE
  5
588
330
1F
100
AcDbEntity
  8
0
  6
Continuous
 62
     7
370
    25
100
AcDbLine
 10
2320.7521688956
 20
872.3463177626
 30
0.0
 11
2320.7521688956
 21
875.146323437
 31
0.0
  0
LINE
  5
589
330
1F
100
AcDbEntity
  8
0
  6
Continuous
 62
     7
370
    25
100
AcDbLine
 10
2320.7521688956
 20
742.1463251059
 30
0.0
 11
2320.7521688956
 21
744.9463203495
 31
0.0
  0
LINE
  5
58A
330
1F
100
AcDbEntity
  8
0
  6
Continuous
 62
     7
370
    25
100
AcDbLine
 10
2329.5076628047
 20
695.9463201409
 30
0.0
 11
2329.502168374
 21
695.9463201409
 31
0.0
  0
LINE
  5
58B
330
1F
100
AcDbEntity
  8
0
  6
Continuous
 62
     7
370
    25
100
AcDbLine
 10
2349.1021696309
 20
695.9463201409
 30
0.0
 11
2329.5076628047
 21
695.9463201409
 31
0.0
  0
LINE
  5
58C
330
1F
100
AcDbEntity
  8
0
  6
Continuous
 62
     7
370
    25
100
AcDbLine
 10
2425.7521704602
 20
698.0463191812
 30
0.0
 11
2383.8960905391
 21
698.0463191812
 31
0.0
  0
LINE
  5
58D
330
1F
100
AcDbEntity
  8
0
  6
Continuous
 62
     7
370
    25
100
AcDbLine
 10
2383.8960905391
 20
698.0463191812
 30
0.0
 11
2383.8960905391
 21
710.6463186388
 31
0.0
  0
LINE
  5
58E
330
1F
100
AcDbEntity
  8
0
  6
Continuous
 62
     7
370
    25
100
AcDbLine
 10
2425.7521704602
 20
725.766319031
 30
0.0
 11
2383.7521687912
 21
725.766319031
 31
0.0
  0
LINE
  5
58F
330
1F
100
AcDbEntity
  8
0
  6
Continuous
 62
     7
370
    25
100
AcDbLine
 10
2424.352167623
 20
696.6463215595
 30
0.0
 11
2385.2864944207
 21
696.6463215595
 31
0.0
  0
LINE
  5
590
330
1F
100
AcDbEntity
  8
0
  6
Continuous
 62
     7
370
    25
100
AcDbLine
 10
2385.2864944207
 20
696.6463215595
 30
0.0
 11
2383.8960905391
 21
698.0463191812
 31
0.0
  0
LINE
  5
591
330
1F
100
AcDbEntity
  8
0
  6
Continuous
 62
     7
370
    25
100
AcDbLine
 10
2425.4721709358
 20
726.0463185554
 30
0.0
 11
2384.0321683156
 21
726.0463185554
 31
0.0
  0
LWPOLYLINE
  5
592
330
1F
100
AcDbEntity
  8
0
  6
Continuous
 62
     7
370
    25
100
AcDbPolyline
 90
        9
 70
   128
 43
0.0
 10
2402.1255605685
 20
726.0463185554
 10
2402.0054445433
 20
726.0681241696
 10
2401.8890731799
 20
726.1328525787
 10
2401.7800659704
 20
726.2384906357
 10
2401.6818181443
 20
726.3817526346
 10
2401.5973963606
 20
726.558168972
 10
2401.5294239687
 20
726.7622530406
 10
2401.4800132083
 20
726.9876368289
 10
2401.4507182705
 20
727.2273108309
  0
ARC
  5
593
330
1F
100
AcDbEntity
  8
0
  6
Continuous
 62
     7
370
    25
100
AcDbCircle
 10
2399.4153768352
 20
727.3309028754
 30
0.0
 40
1.286814831186554
100
AcDbArc
 50
273.3739959661
 51
355.3825395405
  0
ARC
  5
594
330
1F
100
AcDbEntity
  8
0
  6
Continuous
 62
     7
370
    25
100
AcDbCircle
 10
2401.0743667203
 20
727.9741891125
 30
0.0
 40
0.8363418301883139
100
AcDbArc
 50
243.2564904478
 51
296.7435095522
  0
LWPOLYLINE
  5
595
330
1F
100
AcDbEntity
  8
0
  6
Continuous
 62
     7
370
    25
100
AcDbPolyline
 90
        3
 70
   128
 43
0.0
 10
2405.8774665761
 20
726.3817526346
 10
2406.0097292828
 20
726.1328525787
 10
2406.1712295579
 20
726.0463185554
  0
LINE
  5
596
330
1F
100
AcDbEntity
  8
0
  6
Continuous
 62
     7
370
    25
100
AcDbLine
 10
2401.4507182705
 20
727.2273108309
 30
0.0
 11
2405.7963357138
 21
727.2273108309
 31
0.0
  0
LWPOLYLINE
  5
597
330
1F
100
AcDbEntity
  8
0
  6
Continuous
 62
     7
370
    25
100
AcDbPolyline
 90
        3
 70
   128
 43
0.0
 10
2405.7963357138
 20
727.2273108309
 10
2405.8000542986
 20
726.7622530406
 10
2405.8774665761
 20
726.3817526346
  0
LWPOLYLINE
  5
598
330
1F
100
AcDbEntity
  8
0
  6
Continuous
 62
     7
370
    25
100
AcDbPolyline
 90
        3
 70
   128
 43
0.0
 10
2406.2532679009
 20
726.3817526346
 10
2406.2555574643
 20
726.7622530406
 10
2406.2167652714
 20
727.2273108309
  0
LINE
  5
599
330
1F
100
AcDbEntity
  8
0
  6
Continuous
 62
     7
370
    25
100
AcDbLine
 10
2406.2167652714
 20
727.2273108309
 30
0.0
 11
2411.0077471303
 21
727.2273108309
 31
0.0
  0
LWPOLYLINE
  5
59A
330
1F
100
AcDbEntity
  8
0
  6
Continuous
 62
     7
370
    25
100
AcDbPolyline
 90
        9
 70
   128
 43
0.0
 10
2411.0077471303
 20
727.2273108309
 10
2410.9914124774
 20
726.9876368289
 10
2410.9638699162
 20
726.7622530406
 10
2410.9259747731
 20
726.558168972
 10
2410.8789109456
 20
726.3817526346
 10
2410.8241387474
 20
726.2384906357
 10
2410.7633636164
 20
726.1328525787
 10
2410.698489176
 20
726.0681241696
 10
2410.6315233576
 20
726.0463185554
  0
LWPOLYLINE
  5
59B
330
1F
100
AcDbEntity
  8
0
  6
Continuous
 62
     7
370
    25
100
AcDbPolyline
 90
        3
 70
   128
 43
0.0
 10
2406.1712295579
 20
726.0463185554
 10
2406.2203951942
 20
726.1328525787
 10
2406.2532679009
 20
726.3817526346
  0
LWPOLYLINE
  5
59C
330
1F
100
AcDbEntity
  8
0
  6
Continuous
 62
     7
370
    25
100
AcDbPolyline
 90
        3
 70
   128
 43
0.0
 10
2397.938705312
 20
726.3817526346
 10
2398.1693279761
 20
726.7622530406
 10
2398.26815732
 20
727.2273108309
  0
LINE
  5
59D
330
1F
100
AcDbEntity
  8
0
  6
Continuous
 62
     7
370
    25
100
AcDbLine
 10
2398.26815732
 20
727.2273108309
 30
0.0
 11
2400.6980151701
 21
727.2273108309
 31
0.0
  0
LWPOLYLINE
  5
59E
330
1F
100
AcDbEntity
  8
0
  6
Continuous
 62
     7
370
    25
100
AcDbPolyline
 90
        3
 70
   128
 43
0.0
 10
2397.2289693373
 20
726.0463185554
 10
2397.6099782455
 20
726.1328525787
 10
2397.938705312
 20
726.3817526346
  0
ARC
  5
59F
330
1F
100
AcDbEntity
  8
0
  6
Continuous
 62
     7
370
    25
100
AcDbCircle
 10
2413.0424303203
 20
727.4104492071
 30
0.0
 40
1.364297774919122
100
AcDbArc
 50
187.7144649984
 51
269.1031788837
  0
LWPOLYLINE
  5
5A0
330
1F
100
AcDbEntity
  8
0
  6
Continuous
 62
     7
370
    25
100
AcDbPolyline
 90
        8
 70
   128
 43
0.0
 10
2411.0077471303
 20
727.2273108309
 10
2411.2230651843
 20
727.1644912606
 10
2411.3351703453
 20
727.146492893
 10
2411.4393585193
 20
727.1404378062
 10
2411.5303099918
 20
727.1465972011
 10
2411.599544512
 20
727.1630622392
 10
2411.6540768015
 20
727.1899528747
 10
2411.6904803383
 20
727.2273108309
  0
LWPOLYLINE
  5
5A1
330
1F
100
AcDbEntity
  8
0
  6
Continuous
 62
     7
370
    25
100
AcDbPolyline
 90
        3
 70
   128
 43
0.0
 10
2413.4540491569
 20
726.3817526346
 10
2413.8393164444
 20
726.1328525787
 10
2414.2822191882
 20
726.0463185554
  0
LINE
  5
5A2
330
1F
100
AcDbEntity
  8
0
  6
Continuous
 62
     7
370
    25
100
AcDbLine
 10
2411.6904803383
 20
727.2273108309
 30
0.0
 11
2413.0451247859
 21
727.2273108309
 31
0.0
  0
LWPOLYLINE
  5
5A3
330
1F
100
AcDbEntity
  8
0
  6
Continuous
 62
     7
370
    25
100
AcDbPolyline
 90
        3
 70
   128
 43
0.0
 10
2413.0451247859
 20
727.2273108309
 10
2413.1769389677
 20
726.7622530406
 10
2413.4540491569
 20
726.3817526346
  0
ARC
  5
5A4
330
1F
100
AcDbEntity
  8
0
  6
Continuous
 62
     7
370
    25
100
AcDbCircle
 10
2404.0588776959
 20
727.8549290962
 30
0.0
 40
2.340409024514224
100
AcDbArc
 50
320.9902547498
 51
327.6229096898
  0
ARC
  5
5A5
330
1F
100
AcDbEntity
  8
0
  6
Continuous
 62
     7
370
    25
100
AcDbCircle
 10
2407.2366760703
 20
727.5736114665
 30
0.0
 40
1.545192254401199
100
AcDbArc
 50
218.9773404456
 51
230.4738039073
  0
LINE
  5
5A6
330
1F
100
AcDbEntity
  8
0
  6
Continuous
 62
     7
370
    25
100
AcDbLine
 10
2406.0020209121
 20
727.2097662037
 30
0.0
 11
2405.7963357138
 21
727.2273108309
 31
0.0
  0
ARC
  5
5A7
330
1F
100
AcDbEntity
  8
0
  6
Continuous
 62
     7
370
    25
100
AcDbCircle
 10
2414.8992924794
 20
727.3939304966
 30
0.0
 40
8.899177368125926
100
AcDbArc
 50
181.1857938764
 51
185.1076204833
  0
LINE
  5
5A8
330
1F
100
AcDbEntity
  8
0
  6
Continuous
 62
     7
370
    25
100
AcDbLine
 10
2406.2167652714
 20
727.2273108309
 30
0.0
 11
2406.0020209121
 21
727.2097662037
 31
0.0
  0
LWPOLYLINE
  5
5A9
330
1F
100
AcDbEntity
  8
0
  6
Continuous
 62
     7
370
    25
100
AcDbPolyline
 90
        3
 70
   128
 43
0.0
 10
2397.641700955
 20
726.3817526346
 10
2397.4434842187
 20
726.1328525787
 10
2397.2289693373
 20
726.0463185554
  0
LWPOLYLINE
  5
5AA
330
1F
100
AcDbEntity
  8
0
  6
Continuous
 62
     7
370
    25
100
AcDbPolyline
 90
        9
 70
   128
 43
0.0
 10
2392.76867293
 20
726.0463185554
 10
2392.8356387484
 20
726.0681241696
 10
2392.9005157965
 20
726.1328525787
 10
2392.9612857121
 20
726.2384906357
 10
2393.0160579103
 20
726.3817526346
 10
2393.0631269532
 20
726.558168972
 10
2393.1010220962
 20
726.7622530406
 10
2393.1285646575
 20
726.9876368289
 10
2393.1448993104
 20
727.2273108309
  0
LINE
  5
5AB
330
1F
100
AcDbEntity
  8
0
  6
Continuous
 62
     7
370
    25
100
AcDbLine
 10
2393.1448993104
 20
727.2273108309
 30
0.0
 11
2397.9358863848
 21
727.2273108309
 31
0.0
  0
LWPOLYLINE
  5
5AC
330
1F
100
AcDbEntity
  8
0
  6
Continuous
 62
     7
370
    25
100
AcDbPolyline
 90
        3
 70
   128
 43
0.0
 10
2397.9358863848
 20
727.2273108309
 10
2397.8093345481
 20
726.7622530406
 10
2397.641700955
 20
726.3817526346
  0
ARC
  5
5AD
330
1F
100
AcDbEntity
  8
0
  6
Continuous
 62
     7
370
    25
100
AcDbCircle
 10
2396.9724414464
 20
727.6407609099
 30
0.0
 40
1.425836641145366
100
AcDbArc
 50
297.9940724442
 51
313.2172983786
  0
ARC
  5
5AE
330
1F
100
AcDbEntity
  8
0
  6
Continuous
 62
     7
370
    25
100
AcDbCircle
 10
2397.2966058256
 20
726.5214375195
 30
0.0
 40
0.6571176588051397
100
AcDbArc
 50
347.7268730101
 51
7.012777088
  0
ARC
  5
5AF
330
1F
100
AcDbEntity
  8
0
  6
Continuous
 62
     7
370
    25
100
AcDbCircle
 10
2396.2444298875
 20
727.429119749
 30
0.0
 40
1.894619705568708
100
AcDbArc
 50
334.104000074
 51
353.3515519006
  0
LINE
  5
5B0
330
1F
100
AcDbEntity
  8
0
  6
Continuous
 62
     7
370
    25
100
AcDbLine
 10
2398.26815732
 20
727.2273108309
 30
0.0
 11
2398.1263113039
 21
727.2097662037
 31
0.0
  0
LINE
  5
5B1
330
1F
100
AcDbEntity
  8
0
  6
Continuous
 62
     7
370
    25
100
AcDbLine
 10
2398.1263113039
 20
727.2097662037
 30
0.0
 11
2397.9358863848
 21
727.2273108309
 31
0.0
  0
LINE
  5
5B2
330
1F
100
AcDbEntity
  8
0
  6
Continuous
 62
     7
370
    25
100
AcDbLine
 10
2391.6295056062
 20
726.0613650029
 30
0.0
 11
2391.432553606
 21
726.0463185554
 31
0.0
  0
LWPOLYLINE
  5
5B3
330
1F
100
AcDbEntity
  8
0
  6
Continuous
 62
     7
370
    25
100
AcDbPolyline
 90
        8
 70
   128
 43
0.0
 10
2392.7631498146
 20
727.2273108309
 10
2392.732446717
 20
727.1644912606
 10
2392.7516029048
 20
727.146492893
 10
2392.7952715027
 20
727.1404378062
 10
2392.8611916321
 20
727.1465972011
 10
2392.9392845201
 20
727.1630622392
 10
2393.0344343948
 20
727.1899528747
 10
2393.1448993104
 20
727.2273108309
  0
LWPOLYLINE
  5
5B4
330
1F
100
AcDbEntity
  8
0
  6
Continuous
 62
     7
370
    25
100
AcDbPolyline
 90
        3
 70
   128
 43
0.0
 10
2413.6885077524
 20
726.3817526346
 10
2413.461121248
 20
726.7622530406
 10
2413.3074284362
 20
727.2273108309
  0
LINE
  5
5B5
330
1F
100
AcDbEntity
  8
0
  6
Continuous
 62
     7
370
    25
100
AcDbLine
 10
2413.3074284362
 20
727.2273108309
 30
0.0
 11
2417.653051095
 21
727.2273108309
 31
0.0
  0
LWPOLYLINE
  5
5B6
330
1F
100
AcDbEntity
  8
0
  6
Continuous
 62
     7
370
    25
100
AcDbPolyline
 90
        9
 70
   128
 43
0.0
 10
2417.653051095
 20
727.2273108309
 10
2417.6823460328
 20
726.9876368289
 10
2417.7317567932
 20
726.7622530406
 10
2417.7997291851
 20
726.558168972
 10
2417.8841509687
 20
726.3817526346
 10
2417.9823987948
 20
726.2384906357
 10
2418.0914060044
 20
726.1328525787
 10
2418.2077773678
 20
726.0681241696
 10
2418.327893393
 20
726.0463185554
  0
LWPOLYLINE
  5
5B7
330
1F
100
AcDbEntity
  8
0
  6
Continuous
 62
     7
370
    25
100
AcDbPolyline
 90
        3
 70
   128
 43
0.0
 10
2414.2822191882
 20
726.0463185554
 10
2413.9707499015
 20
726.1328525787
 10
2413.6885077524
 20
726.3817526346
  0
ARC
  5
5B8
330
1F
100
AcDbEntity
  8
0
  6
Continuous
 62
     7
370
    25
100
AcDbCircle
 10
2413.864024204
 20
726.6636455771
 30
0.0
 40
0.4975371045290407
100
AcDbArc
 50
187.1561471726
 51
214.5118536045
  0
ARC
  5
5B9
330
1F
100
AcDbEntity
  8
0
  6
Continuous
 62
     7
370
    25
100
AcDbCircle
 10
2414.2686591749
 20
727.561134621
 30
0.0
 40
1.314350616508734
100
AcDbArc
 50
226.8859609302
 51
243.8069020008
  0
LINE
  5
5BA
330
1F
100
AcDbEntity
  8
0
  6
Continuous
 62
     7
370
    25
100
AcDbLine
 10
2413.1455839443
 20
727.2097662037
 30
0.0
 11
2413.0451247859
 21
727.2273108309
 31
0.0
  0
ARC
  5
5BB
330
1F
100
AcDbEntity
  8
0
  6
Continuous
 62
     7
370
    25
100
AcDbCircle
 10
2414.7322608174
 20
727.4506725277
 30
0.0
 40
1.604861164302673
100
AcDbArc
 50
188.6333234674
 51
211.9394076497
  0
LINE
  5
5BC
330
1F
100
AcDbEntity
  8
0
  6
Continuous
 62
     7
370
    25
100
AcDbLine
 10
2413.3074284362
 20
727.2273108309
 30
0.0
 11
2413.1455839443
 21
727.2097662037
 31
0.0
  0
LWPOLYLINE
  5
5BD
330
1F
100
AcDbEntity
  8
0
  6
Continuous
 62
     7
370
    25
100
AcDbPolyline
 90
        9
 70
   128
 43
0.0
 10
2417.653051095
 20
727.2273108309
 10
2417.75417261
 20
727.1893322413
 10
2417.8358354437
 20
727.1622069125
 10
2417.8964123892
 20
727.1458305364
 10
2417.9352045822
 20
727.1403178518
 10
2417.9526501166
 20
727.145825321
 10
2417.9478415119
 20
727.1621964817
 10
2417.9191880691
 20
727.1893270259
 10
2417.8658761847
 20
727.2273108309
  0
ARC
  5
5BE
330
1F
100
AcDbEntity
  8
0
  6
Continuous
 62
     7
370
    25
100
AcDbCircle
 10
2392.8718689959
 20
707.7441113791
 30
0.0
 40
9.433313621657218
100
AcDbArc
 50
162.082026021
 51
171.7523921999
  0
LWPOLYLINE
  5
5BF
330
1F
100
AcDbEntity
  8
0
  6
Continuous
 62
     7
370
    25
100
AcDbPolyline
 90
       11
 70
   128
 43
0.0
 10
2383.8960905391
 20
710.6463186388
 10
2383.8960566389
 20
710.6461882537
 10
2383.8958062994
 20
710.6450773721
 10
2383.8951126504
 20
710.6419481282
 10
2383.8924945163
 20
710.6300465708
 10
2383.8823427277
 20
710.5836555307
 10
2383.5852497088
 20
709.2393793111
 10
2383.2954712975
 20
708.004725719
 10
2383.0179569143
 20
706.9527782445
 10
2382.5463329273
 20
705.6110106354
 10
2382.0448846387
 20
705.0463229363
  0
LINE
  5
5C0
330
1F
100
AcDbEntity
  8
0
  6
Continuous
 62
     7
370
    25
100
AcDbLine
 10
2383.8960905391
 20
698.0463191812
 30
0.0
 11
2349.4577260519
 21
698.0463191812
 31
0.0
  0
LINE
  5
5C1
330
1F
100
AcDbEntity
  8
0
  6
Continuous
 62
     7
370
    25
100
AcDbLine
 10
2349.4577260519
 20
705.0463229363
 30
0.0
 11
2349.4577260519
 21
698.0463191812
 31
0.0
  0
LINE
  5
5C2
330
1F
100
AcDbEntity
  8
0
  6
Continuous
 62
     7
370
    25
100
AcDbLine
 10
2382.0448846387
 20
705.0463229363
 30
0.0
 11
2349.4577260519
 21
705.0463229363
 31
0.0
  0
LINE
  5
5C3
330
1F
100
AcDbEntity
  8
0
  6
Continuous
 62
     7
370
    25
100
AcDbLine
 10
2350.8481315634
 20
696.6463215595
 30
0.0
 11
2349.4577260519
 21
698.0463191812
 31
0.0
  0
LINE
  5
5C4
330
1F
100
AcDbEntity
  8
0
  6
Continuous
 62
     7
370
    25
100
AcDbLine
 10
2385.2864944207
 20
696.6463215595
 30
0.0
 11
2350.8481315634
 21
696.6463215595
 31
0.0
  0
ARC
  5
5C5
330
1F
100
AcDbEntity
  8
0
  6
Continuous
 62
     7
370
    25
100
AcDbCircle
 10
2390.3558228923
 20
727.3309075874
 30
0.0
 40
1.286819643349471
100
AcDbArc
 50
273.3740653827
 51
355.3823463569
  0
LINE
  5
5C6
330
1F
100
AcDbEntity
  8
0
  6
Continuous
 62
     7
370
    25
100
AcDbLine
 10
2350.8481315634
 20
706.4463205581
 30
0.0
 11
2349.4577260519
 21
705.0463229363
 31
0.0
  0
LINE
  5
5C7
330
1F
100
AcDbEntity
  8
0
  6
Continuous
 62
     7
370
    25
100
AcDbLine
 10
2350.8481315634
 20
706.4463205581
 30
0.0
 11
2382.839939447
 21
706.4463205581
 31
0.0
  0
LINE
  5
5C8
330
1F
100
AcDbEntity
  8
0
  6
Continuous
 62
     7
370
    25
100
AcDbLine
 10
2349.3002683687
 20
698.0463191812
 30
0.0
 11
2349.4577260519
 21
698.0463191812
 31
0.0
  0
LINE
  5
5C9
330
1F
100
AcDbEntity
  8
0
  6
Continuous
 62
     7
370
    25
100
AcDbLine
 10
2349.3002683687
 20
698.0463191812
 30
0.0
 11
2349.3002683687
 21
705.0463229363
 31
0.0
  0
LINE
  5
5CA
330
1F
100
AcDbEntity
  8
0
  6
Continuous
 62
     7
370
    25
100
AcDbLine
 10
2349.4577260519
 20
705.0463229363
 30
0.0
 11
2349.3002683687
 21
705.0463229363
 31
0.0
  0
LINE
  5
5CB
330
1F
100
AcDbEntity
  8
0
  6
Continuous
 62
     7
370
    25
100
AcDbLine
 10
2350.6938230077
 20
696.6463215595
 30
0.0
 11
2349.3002683687
 21
698.0463191812
 31
0.0
  0
LINE
  5
5CC
330
1F
100
AcDbEntity
  8
0
  6
Continuous
 62
     7
370
    25
100
AcDbLine
 10
2350.8481315634
 20
696.6463215595
 30
0.0
 11
2350.6938230077
 21
696.6463215595
 31
0.0
  0
LINE
  5
5CD
330
1F
100
AcDbEntity
  8
0
  6
Continuous
 62
     7
370
    25
100
AcDbLine
 10
2349.3002683687
 20
705.0463229363
 30
0.0
 11
2350.6938230077
 21
706.4463205581
 31
0.0
  0
LINE
  5
5CE
330
1F
100
AcDbEntity
  8
0
  6
Continuous
 62
     7
370
    25
100
AcDbLine
 10
2350.6938230077
 20
706.4463205581
 30
0.0
 11
2350.8481315634
 21
706.4463205581
 31
0.0
  0
LINE
  5
5CF
330
1F
100
AcDbEntity
  8
0
  6
Continuous
 62
     7
370
    25
100
AcDbLine
 10
2325.3666248935
 20
696.6463215595
 30
0.0
 11
2323.9730709064
 21
698.0463191812
 31
0.0
  0
LINE
  5
5D0
330
1F
100
AcDbEntity
  8
0
  6
Continuous
 62
     7
370
    25
100
AcDbLine
 10
2349.3002683687
 20
698.0463191812
 30
0.0
 11
2323.9730709064
 21
698.0463191812
 31
0.0
  0
LINE
  5
5D1
330
1F
100
AcDbEntity
  8
0
  6
Continuous
 62
     7
370
    25
100
AcDbLine
 10
2350.6938230077
 20
696.6463215595
 30
0.0
 11
2325.3666248935
 21
696.6463215595
 31
0.0
  0
LINE
  5
5D2
330
1F
100
AcDbEntity
  8
0
  6
Continuous
 62
     7
370
    25
100
AcDbLine
 10
2323.9730709064
 20
705.0463229363
 30
0.0
 11
2325.3666248935
 21
706.4463205581
 31
0.0
  0
LINE
  5
5D3
330
1F
100
AcDbEntity
  8
0
  6
Continuous
 62
     7
370
    25
100
AcDbLine
 10
2349.3002683687
 20
705.0463229363
 30
0.0
 11
2323.9730709064
 21
705.0463229363
 31
0.0
  0
LINE
  5
5D4
330
1F
100
AcDbEntity
  8
0
  6
Continuous
 62
     7
370
    25
100
AcDbLine
 10
2325.3666248935
 20
706.4463205581
 30
0.0
 11
2350.6938230077
 21
706.4463205581
 31
0.0
  0
LINE
  5
5D5
330
1F
100
AcDbEntity
  8
0
  6
Continuous
 62
     7
370
    25
100
AcDbLine
 10
2323.9730709064
 20
698.0463191812
 30
0.0
 11
2323.9730709064
 21
705.0463229363
 31
0.0
  0
LINE
  5
5D6
330
1F
100
AcDbEntity
  8
0
  6
Continuous
 62
     7
370
    25
100
AcDbLine
 10
2323.9730709064
 20
698.0463191812
 30
0.0
 11
2323.9021700638
 21
698.0463191812
 31
0.0
  0
LINE
  5
5D7
330
1F
100
AcDbEntity
  8
0
  6
Continuous
 62
     7
370
    25
100
AcDbLine
 10
2325.3666248935
 20
696.6463215595
 30
0.0
 11
2325.3021702933
 21
696.6463215595
 31
0.0
  0
LINE
  5
5D8
330
1F
100
AcDbEntity
  8
0
  6
Continuous
 62
     7
370
    25
100
AcDbLine
 10
2323.9730709064
 20
705.0463229363
 30
0.0
 11
2323.9021700638
 21
705.0463229363
 31
0.0
  0
LINE
  5
5D9
330
1F
100
AcDbEntity
  8
0
  6
Continuous
 62
     7
370
    25
100
AcDbLine
 10
2325.3021702933
 20
706.4463205581
 30
0.0
 11
2325.3666248935
 21
706.4463205581
 31
0.0
  0
LINE
  5
5DA
330
1F
100
AcDbEntity
  8
0
  6
Continuous
 62
     7
370
    25
100
AcDbLine
 10
2321.4521703141
 20
670.0463198071
 30
0.0
 11
2321.4521703141
 21
669.3463209962
 31
0.0
  0
LINE
  5
5DB
330
1F
100
AcDbEntity
  8
0
  6
Continuous
 62
     7
370
    25
100
AcDbLine
 10
2321.4521703141
 20
670.0463198071
 30
0.0
 11
2359.2521693389
 21
670.0463198071
 31
0.0
  0
LINE
  5
5DC
330
1F
100
AcDbEntity
  8
0
  6
Continuous
 62
     7
370
    25
100
AcDbLine
 10
2359.2521693389
 20
669.3463209962
 30
0.0
 11
2359.2521693389
 21
670.0463198071
 31
0.0
  0
LINE
  5
5DD
330
1F
100
AcDbEntity
  8
0
  6
Continuous
 62
     7
370
    25
100
AcDbLine
 10
2321.4521703141
 20
669.3463209962
 30
0.0
 11
2359.2521693389
 21
669.3463209962
 31
0.0
  0
LINE
  5
5DE
330
1F
100
AcDbEntity
  8
0
  6
Continuous
 62
     7
370
    25
100
AcDbLine
 10
2320.7521688956
 20
670.0463198071
 30
0.0
 11
2321.4521703141
 21
670.0463198071
 31
0.0
  0
ARC
  5
5DF
330
1F
100
AcDbEntity
  8
0
  6
Continuous
 62
     7
370
    25
100
AcDbCircle
 10
2321.4521695655
 20
670.0463216662
 30
0.0
 40
0.70000066996155
100
AcDbArc
 50
180.0001521671
 51
270.0000612763
  0
LINE
  5
5E0
330
1F
100
AcDbEntity
  8
0
  6
Continuous
 62
     7
370
    25
100
AcDbLine
 10
2359.2521693389
 20
692.4463182633
 30
0.0
 11
2359.2521693389
 21
693.1463196819
 31
0.0
  0
LINE
  5
5E1
330
1F
100
AcDbEntity
  8
0
  6
Continuous
 62
     7
370
    25
100
AcDbLine
 10
2359.2521693389
 20
692.4463182633
 30
0.0
 11
2321.4521703141
 21
692.4463182633
 31
0.0
  0
LINE
  5
5E2
330
1F
100
AcDbEntity
  8
0
  6
Continuous
 62
     7
370
    25
100
AcDbLine
 10
2321.4521703141
 20
693.1463196819
 30
0.0
 11
2321.4521703141
 21
692.4463182633
 31
0.0
  0
LINE
  5
5E3
330
1F
100
AcDbEntity
  8
0
  6
Continuous
 62
     7
370
    25
100
AcDbLine
 10
2359.2521693389
 20
693.1463196819
 30
0.0
 11
2321.4521703141
 21
693.1463196819
 31
0.0
  0
LINE
  5
5E4
330
1F
100
AcDbEntity
  8
0
  6
Continuous
 62
     7
370
    25
100
AcDbLine
 10
2321.4521703141
 20
692.4463182633
 30
0.0
 11
2320.7521688956
 21
692.4463182633
 31
0.0
  0
LINE
  5
5E5
330
1F
100
AcDbEntity
  8
0
  6
Continuous
 62
     7
370
    25
100
AcDbLine
 10
2321.4521703141
 20
692.4463182633
 30
0.0
 11
2321.4521703141
 21
670.0463198071
 31
0.0
  0
LINE
  5
5E6
330
1F
100
AcDbEntity
  8
0
  6
Continuous
 62
     7
370
    25
100
AcDbLine
 10
2320.7521688956
 20
692.4463182633
 30
0.0
 11
2320.7521688956
 21
670.0463198071
 31
0.0
  0
ARC
  5
5E7
330
1F
100
AcDbEntity
  8
0
  6
Continuous
 62
     7
370
    25
100
AcDbCircle
 10
2321.4521651139
 20
692.4463234635
 30
0.0
 40
0.6999962183889358
100
AcDbArc
 50
89.9995743538
 51
180.0004256462
  0
LINE
  5
5E8
330
1F
100
AcDbEntity
  8
0
  6
Continuous
 62
     7
370
    25
100
AcDbLine
 10
2359.2521693389
 20
670.0463198071
 30
0.0
 11
2359.2521693389
 21
692.4463182633
 31
0.0
  0
LINE
  5
5E9
330
1F
100
AcDbEntity
  8
0
  6
Continuous
 62
     7
370
    25
100
AcDbLine
 10
2359.9521694536
 20
692.4463182633
 30
0.0
 11
2359.2521693389
 21
692.4463182633
 31
0.0
  0
LINE
  5
5EA
330
1F
100
AcDbEntity
  8
0
  6
Continuous
 62
     7
370
    25
100
AcDbLine
 10
2359.9521694536
 20
670.0463198071
 30
0.0
 11
2359.9521694536
 21
692.4463182633
 31
0.0
  0
LINE
  5
5EB
330
1F
100
AcDbEntity
  8
0
  6
Continuous
 62
     7
370
    25
100
AcDbLine
 10
2359.2521693389
 20
670.0463198071
 30
0.0
 11
2359.9521694536
 21
670.0463198071
 31
0.0
  0
ARC
  5
5EC
330
1F
100
AcDbEntity
  8
0
  6
Continuous
 62
     7
370
    25
100
AcDbCircle
 10
2359.2521732353
 20
692.4463234635
 30
0.0
 40
0.6999962183744386
100
AcDbArc
 50
359.9995743533
 51
90.0003189251
  0
ARC
  5
5ED
330
1F
100
AcDbEntity
  8
0
  6
Continuous
 62
     7
370
    25
100
AcDbCircle
 10
2359.2521687836
 20
670.0463216662
 30
0.0
 40
0.70000066996155
100
AcDbArc
 50
270.0000454453
 51
359.9998478329
  0
LINE
  5
5EE
330
1F
100
AcDbEntity
  8
0
  6
Continuous
 62
     7
370
    25
100
AcDbLine
 10
2383.7521687912
 20
710.6463186388
 30
0.0
 11
2383.8960905391
 21
710.6463186388
 31
0.0
  0
LINE
  5
5EF
330
1F
100
AcDbEntity
  8
0
  6
Continuous
 62
     7
370
    25
100
AcDbLine
 10
2401.527541207
 20
728.4879006391
 30
0.0
 11
2401.4507182705
 21
727.2273108309
 31
0.0
  0
LINE
  5
5F0
330
1F
100
AcDbEntity
  8
0
  6
Continuous
 62
     7
370
    25
100
AcDbLine
 10
2400.6980151701
 20
727.2273108309
 30
0.0
 11
2400.774843322
 21
728.4879006391
 31
0.0
  0
LINE
  5
5F1
330
1F
100
AcDbEntity
  8
0
  6
Continuous
 62
     7
370
    25
100
AcDbLine
 10
2398.4020628798
 20
728.4879006391
 30
0.0
 11
2398.26815732
 21
727.2273108309
 31
0.0
  0
LINE
  5
5F2
330
1F
100
AcDbEntity
  8
0
  6
Continuous
 62
     7
370
    25
100
AcDbLine
 10
2405.7963357138
 20
727.2273108309
 30
0.0
 11
2405.7710775005
 21
728.4879006391
 31
0.0
  0
LINE
  5
5F3
330
1F
100
AcDbEntity
  8
0
  6
Continuous
 62
     7
370
    25
100
AcDbLine
 10
2411.0077471303
 20
727.2273108309
 30
0.0
 11
2410.869945662
 21
728.4879006391
 31
0.0
  0
LINE
  5
5F4
330
1F
100
AcDbEntity
  8
0
  6
Continuous
 62
     7
370
    25
100
AcDbLine
 10
2406.1915070581
 20
728.4879006391
 30
0.0
 11
2406.2167652714
 21
727.2273108309
 31
0.0
  0
LINE
  5
5F5
330
1F
100
AcDbEntity
  8
0
  6
Continuous
 62
     7
370
    25
100
AcDbLine
 10
2411.5526788699
 20
728.4879006391
 30
0.0
 11
2411.6904803383
 21
727.2273108309
 31
0.0
  0
LINE
  5
5F6
330
1F
100
AcDbEntity
  8
0
  6
Continuous
 62
     7
370
    25
100
AcDbLine
 10
2413.0451247859
 20
727.2273108309
 30
0.0
 11
2412.8755041229
 21
728.4879006391
 31
0.0
  0
LINE
  5
5F7
330
1F
100
AcDbEntity
  8
0
  6
Continuous
 62
     7
370
    25
100
AcDbLine
 10
2397.9358863848
 20
727.2273108309
 30
0.0
 11
2398.0697893369
 21
728.4879006391
 31
0.0
  0
LINE
  5
5F8
330
1F
100
AcDbEntity
  8
0
  6
Continuous
 62
     7
370
    25
100
AcDbLine
 10
2393.3913481253
 20
728.4879006391
 30
0.0
 11
2393.1448993104
 21
727.2273108309
 31
0.0
  0
LINE
  5
5F9
330
1F
100
AcDbEntity
  8
0
  6
Continuous
 62
     7
370
    25
100
AcDbLine
 10
2413.1378077733
 20
728.4879006391
 30
0.0
 11
2413.3074284362
 21
727.2273108309
 31
0.0
  0
LINE
  5
5FA
330
1F
100
AcDbEntity
  8
0
  6
Continuous
 62
     7
370
    25
100
AcDbLine
 10
2417.653051095
 20
727.2273108309
 30
0.0
 11
2417.3813440668
 21
728.4879006391
 31
0.0
  0
LINE
  5
5FB
330
1F
100
AcDbEntity
  8
0
  6
Continuous
 62
     7
370
    25
100
AcDbLine
 10
2391.6384656745
 20
727.2273108309
 30
0.0
 11
2392.7419152873
 21
727.2273108309
 31
0.0
  0
LINE
  5
5FC
330
1F
100
AcDbEntity
  8
0
  6
Continuous
 62
     7
370
    25
100
AcDbLine
 10
2391.9101700949
 20
728.4879006391
 30
0.0
 11
2391.6384656745
 21
727.2273108309
 31
0.0
  0
LWPOLYLINE
  5
5FD
330
1F
100
AcDbEntity
  8
0
  6
Continuous
 62
     7
370
    25
100
AcDbPolyline
 90
        3
 70
   128
 43
0.0
 10
2391.5537622588
 20
727.1526835804
 10
2391.5585969406
 20
727.1644756143
 10
2391.6384656745
 20
727.2273108309
  0
LINE
  5
5FE
330
1F
100
AcDbEntity
  8
FORMAT
370
    25
100
AcDbLine
 10
2320.7521694168
 20
768.7463204329
 30
0.0
 11
2324.9521694168
 21
768.7463204329
 31
0.0
  0
LINE
  5
5FF
330
1F
100
AcDbEntity
  8
FORMAT
370
    25
100
AcDbLine
 10
2324.9521694168
 20
778.5463204329
 30
0.0
 11
2320.7521694168
 21
778.5463204329
 31
0.0
  0
LINE
  5
600
330
1F
100
AcDbEntity
  8
FORMAT
370
    25
100
AcDbLine
 10
2320.7521694168
 20
780.6463204329
 30
0.0
 11
2324.9521694168
 21
780.6463204329
 31
0.0
  0
LINE
  5
601
330
1F
100
AcDbEntity
  8
FORMAT
370
    25
100
AcDbLine
 10
2324.9521694168
 20
794.6463204329
 30
0.0
 11
2320.7521694168
 21
794.6463204329
 31
0.0
  0
LINE
  5
602
330
1F
100
AcDbEntity
  8
FORMAT
370
    25
100
AcDbLine
 10
2320.7521694168
 20
796.7463204329
 30
0.0
 11
2324.9521694168
 21
796.7463204329
 31
0.0
  0
LINE
  5
603
330
1F
100
AcDbEntity
  8
FORMAT
370
    25
100
AcDbLine
 10
2324.9521694168
 20
806.5463204329
 30
0.0
 11
2320.7521694168
 21
806.5463204329
 31
0.0
  0
LINE
  5
604
330
1F
100
AcDbEntity
  8
FORMAT
370
    25
100
AcDbLine
 10
2320.7521694168
 20
810.7463204329
 30
0.0
 11
2324.9521694168
 21
810.7463204329
 31
0.0
  0
LINE
  5
605
330
1F
100
AcDbEntity
  8
FORMAT
370
    25
100
AcDbLine
 10
2324.9521694168
 20
820.5463204329
 30
0.0
 11
2320.7521694168
 21
820.5463204329
 31
0.0
  0
LINE
  5
606
330
1F
100
AcDbEntity
  8
FORMAT
370
    25
100
AcDbLine
 10
2320.7521694168
 20
822.6463204329
 30
0.0
 11
2324.9521694168
 21
822.6463204329
 31
0.0
  0
LINE
  5
607
330
1F
100
AcDbEntity
  8
FORMAT
370
    25
100
AcDbLine
 10
2324.9521694168
 20
836.6463204329
 30
0.0
 11
2320.7521694168
 21
836.6463204329
 31
0.0
  0
LINE
  5
608
330
1F
100
AcDbEntity
  8
FORMAT
370
    25
100
AcDbLine
 10
2320.7521694168
 20
838.7463204329
 30
0.0
 11
2324.9521694168
 21
838.7463204329
 31
0.0
  0
LINE
  5
609
330
1F
100
AcDbEntity
  8
FORMAT
370
    25
100
AcDbLine
 10
2324.9521694168
 20
848.5463204329
 30
0.0
 11
2320.7521694168
 21
848.5463204329
 31
0.0
  0
LINE
  5
60A
330
1F
100
AcDbEntity
  8
FORMAT
  6
CENTERX2
370
    25
100
AcDbLine
 10
2310.7907926082
 20
853.7801465459
 30
0.0
 11
2334.8270412313
 21
853.7801465459
 31
0.0
  0
LINE
  5
60B
330
1F
100
AcDbEntity
  8
FORMAT
  6
CENTERX2
370
    25
100
AcDbLine
 10
2310.7907926082
 20
853.7801465459
 30
0.0
 11
2310.7907926082
 21
763.5163618231
 31
0.0
  0
LINE
  5
60C
330
1F
100
AcDbEntity
  8
FORMAT
  6
CENTERX2
370
    25
100
AcDbLine
 10
2310.7907926082
 20
763.5163618231
 30
0.0
 11
2334.8270412313
 21
763.5163618231
 31
0.0
  0
LINE
  5
60D
330
1F
100
AcDbEntity
  8
FORMAT
  6
CENTERX2
370
    25
100
AcDbLine
 10
2334.8270412313
 20
853.7801465459
 30
0.0
 11
2334.8270412313
 21
763.5163618231
 31
0.0
  0
ARC
  5
60E
330
1F
100
AcDbEntity
  8
FORMAT
370
    25
100
AcDbCircle
 10
2324.9521694168
 20
773.6463204329
 30
0.0
 40
4.899999999999864
100
AcDbArc
 50
270.0
 51
90.0
  0
ARC
  5
60F
330
1F
100
AcDbEntity
  8
FORMAT
370
    25
100
AcDbCircle
 10
2324.9521694168
 20
787.6463204329
 30
0.0
 40
7.0
100
AcDbArc
 50
270.0
 51
90.0
  0
ARC
  5
610
330
1F
100
AcDbEntity
  8
FORMAT
370
    25
100
AcDbCircle
 10
2324.9521694168
 20
801.6463204329
 30
0.0
 40
4.900000000000205
100
AcDbArc
 50
270.0
 51
90.0
  0
ARC
  5
611
330
1F
100
AcDbEntity
  8
FORMAT
370
    25
100
AcDbCircle
 10
2324.9521694168
 20
815.6463204329
 30
0.0
 40
4.899999999999977
100
AcDbArc
 50
270.0
 51
90.0
  0
ARC
  5
612
330
1F
100
AcDbEntity
  8
FORMAT
370
    25
100
AcDbCircle
 10
2324.9521694168
 20
829.6463204329
 30
0.0
 40
7.000000000000114
100
AcDbArc
 50
270.0
 51
90.0
  0
ARC
  5
613
330
1F
100
AcDbEntity
  8
FORMAT
370
    25
100
AcDbCircle
 10
2324.9521694168
 20
843.6463204329
 30
0.0
 40
4.899999999999977
100
AcDbArc
 50
270.0
 51
90.0
  0
DIMENSION
  5
614
330
1F
100
AcDbEntity
  8
FORMAT
100
AcDbDimension
  2
_D_26
 10
2359.952169414
 20
534.6851684529
 30
0.0
 11
2418.6100356939
 21
534.6851684529
 31
0.0
 70
   160
  1
(<>)
 71
     2
 42
-1.0
  3
SLDDIMSTYLE5
100
AcDbAlignedDimension
 13
2320.7521694174
 23
614.5372785573
 33
0.0
 14
2359.952169414
 24
670.0463204477
 34
0.0
100
AcDbRotatedDimension
  0
DIMENSION
  5
623
330
1F
100
AcDbEntity
  8
FORMAT
100
AcDbDimension
  2
_D_27
 10
2513.6147294479
 20
693.1463204477
 30
0.0
 11
2513.6147294479
 21
602.7662660795
 31
0.0
 70
   160
  1
(<>)
 71
     2
 42
-1.0
  3
SLDDIMSTYLE5
100
AcDbAlignedDimension
 13
2359.252169414
 23
669.3463204477
 33
0.0
 14
2359.252169414
 24
693.1463204477
 34
0.0
 50
90.0
100
AcDbRotatedDimension
  0
DIMENSION
  5
631
330
1F
100
AcDbEntity
  8
FORMAT
100
AcDbDimension
  2
_D_28
 10
2562.301566127
 20
696.6463204332
 30
0.0
 11
2562.301566127
 21
602.7662663935
 31
0.0
 70
   160
  1
<>
 71
     2
 42
-1.0
  3
SLDDIMSTYLE5
100
AcDbAlignedDimension
 13
2359.252169414
 23
693.1463204477
 33
0.0
 14
2385.286495413
 24
696.6463204332
 34
0.0
 50
90.0
100
AcDbRotatedDimension
  0
DIMENSION
  5
63D
330
1F
100
AcDbEntity
  8
FORMAT
100
AcDbDimension
  2
_D_29
 10
2600.7521694171
 20
742.1463204329
 30
0.0
 11
2600.7521694171
 21
805.5161838424
 31
0.0
 70
   160
  1
<>
 71
     2
 42
-1.0
  3
SLDDIMSTYLE5
100
AcDbAlignedDimension
 13
2385.286495413
 23
696.6463204332
 33
0.0
 14
2481.7521694168
 24
742.1463204329
 34
0.0
 50
90.0
100
AcDbRotatedDimension
  0
DIMENSION
  5
649
330
1F
100
AcDbEntity
  8
FORMAT
100
AcDbDimension
  2
_D_30
 10
2197.213458833
 20
712.0463204329
 30
0.0
 11
2197.213458833
 21
663.764053869
 31
0.0
 70
   160
  1
<>*
 71
     2
 42
-1.0
  3
SLDDIMSTYLE6
100
AcDbAlignedDimension
 13
2325.3666250142
 23
706.446320433
 33
0.0
 14
2278.7521694174
 24
712.0463204329
 34
0.0
 50
90.0
100
AcDbRotatedDimension
  0
DIMENSION
  5
657
330
1F
100
AcDbEntity
  8
FORMAT
100
AcDbDimension
  2
_D_31
 10
2128.3948982626
 20
712.0463204329
 30
0.0
 11
2128.3948982626
 21
635.3472720147
 31
0.0
 70
   160
  1
<>
 71
     2
 42
-1.0
  3
SLDDIMSTYLE7
100
AcDbAlignedDimension
 13
2321.452169414
 23
693.1463204477
 33
0.0
 14
2278.7521694174
 24
712.0463204329
 34
0.0
 50
90.0
100
AcDbRotatedDimension
  0
DIMENSION
  5
664
330
1F
100
AcDbEntity
  8
FORMAT
100
AcDbDimension
  2
_D_32
 10
2128.3948982626
 20
742.1463204329
 30
0.0
 11
2128.3948982626
 21
814.5541877653
 31
0.0
 70
   160
  1
<>
 71
     2
 42
-1.0
  3
SLDDIMSTYLE8
100
AcDbAlignedDimension
 13
2278.7521694174
 23
712.0463204329
 33
0.0
 14
2320.7521694168
 24
742.1463204329
 34
0.0
 50
90.0
100
AcDbRotatedDimension
  0
MTEXT
  5
671
330
1F
100
AcDbEntity
  8
FORMAT
100
AcDbMText
 10
2334.9185133193
 20
1070.7188210921
 30
0.0
 40
35.0
 41
0.0
 71
     2
 72
     1
  1
B (1 : 5)
  7
SLDTEXTSTYLE0
 73
     1
 44
1.0
  0
MTEXT
  5
672
330
1F
100
AcDbEntity
  8
FORMAT
100
AcDbMText
 10
2228.6052960544
 20
510.281507734
 30
0.0
 40
18.5208333333
 41
0.0
 71
     1
 72
     1
  1
* Abstand Oberkante Hebel zu Unterkante Türrahmen
  7
SLDTEXTSTYLE0
 73
     1
 44
1.0
  0
MTEXT
  5
673
330
1F
100
AcDbEntity
  8
FORMAT
100
AcDbMText
 10
1778.8412041068
 20
920.6554323933
 30
0.0
 40
18.5208333333
 41
0.0
 71
     1
 72
     1
  1
aufliegende Kabelzuführung (optional)
  7
SLDTEXTSTYLE0
 73
     1
 44
1.0
  0
LEADER
  5
674
330
1F
100
AcDbEntity
  8
FORMAT
100
AcDbLeader
  3
SLDDIMSTYLE3
 76
     3
 10
2310.7907926082
 20
831.9521606116
 30
0.0
 10
2243.7626784152
 20
911.4836035886
 30
0.0
 10
2199.3126784152
 20
911.4836035886
 30
0.0
  0
CIRCLE
  5
675
330
1F
100
AcDbEntity
  8
0
  6
Continuous
 62
     7
370
    18
100
AcDbCircle
 10
1839.7794449716
 20
343.3162823532
 30
0.0
 40
76.467788300732
  0
ARC
  5
676
330
1F
100
AcDbEntity
  8
0
  6
Continuous
 62
     7
370
    25
100
AcDbCircle
 10
1850.6100471803
 20
397.6372772082
 30
0.0
 40
4.200008151989502
100
AcDbArc
 50
9.5942083945
 51
170.4057916055
  0
ARC
  5
677
330
1F
100
AcDbEntity
  8
0
  6
Continuous
 62
     7
370
    25
100
AcDbCircle
 10
1828.2100435086
 20
397.6372853122
 30
0.0
 40
4.549995541921954
100
AcDbArc
 50
8.8499349891
 51
171.1500650109
  0
ARC
  5
678
330
1F
100
AcDbEntity
  8
0
  6
Continuous
 62
     7
370
    25
100
AcDbCircle
 10
1828.2100435086
 20
397.6372892467
 30
0.0
 40
4.549995541921963
100
AcDbArc
 50
188.8499349891
 51
351.1500650109
  0
ARC
  5
679
330
1F
100
AcDbEntity
  8
0
  6
Continuous
 62
     7
370
    25
100
AcDbCircle
 10
1850.6100471803
 20
397.6372973506
 30
0.0
 40
4.200008151989521
100
AcDbArc
 50
189.5942083945
 51
350.4057916055
  0
ARC
  5
67A
330
1F
100
AcDbEntity
  8
0
  6
Continuous
 62
     7
370
    25
100
AcDbCircle
 10
1828.2100435086
 20
291.2373010608
 30
0.0
 40
4.549993645416754
100
AcDbArc
 50
8.8497816055
 51
171.1502183945
  0
ARC
  5
67B
330
1F
100
AcDbEntity
  8
0
  6
Continuous
 62
     7
370
    25
100
AcDbCircle
 10
1850.6100471803
 20
291.2372806295
 30
0.0
 40
4.200008151989278
100
AcDbArc
 50
9.5942083945
 51
170.4057916055
  0
ARC
  5
67C
330
1F
100
AcDbEntity
  8
0
  6
Continuous
 62
     7
370
    25
100
AcDbCircle
 10
1828.2100435086
 20
291.2372803407
 30
0.0
 40
4.549993645416771
100
AcDbArc
 50
188.8497816055
 51
351.1502183945
  0
ARC
  5
67D
330
1F
100
AcDbEntity
  8
0
  6
Continuous
 62
     7
370
    25
100
AcDbCircle
 10
1850.6100471803
 20
291.2373007719
 30
0.0
 40
4.200008151989521
100
AcDbArc
 50
189.5942083945
 51
350.4057916055
  0
LINE
  5
67E
330
1F
100
AcDbEntity
  8
0
  6
Continuous
 62
     7
370
    25
100
AcDbLine
 10
1880.3419943639
 20
408.1372876966
 30
0.0
 11
1799.2169107982
 21
408.1372876966
 31
0.0
  0
LINE
  5
67F
330
1F
100
AcDbEntity
  8
0
  6
Continuous
 62
     7
370
    25
100
AcDbLine
 10
1795.8314861842
 20
280.7372902835
 30
0.0
 11
1883.7273772546
 21
280.7372902835
 31
0.0
  0
ARC
  5
680
330
1F
100
AcDbEntity
  8
0
  6
Continuous
 62
     7
370
    25
100
AcDbCircle
 10
1850.6058009024
 20
397.6369186841
 30
0.0
 40
4.204254806493589
100
AcDbArc
 50
0.0051653851
 51
9.5893811515
  0
ARC
  5
681
330
1F
100
AcDbEntity
  8
0
  6
Continuous
 62
     7
370
    25
100
AcDbCircle
 10
1850.6142934582
 20
397.6369186841
 30
0.0
 40
4.204254806529509
100
AcDbArc
 50
170.4106188486
 51
179.9948346149
  0
ARC
  5
682
330
1F
100
AcDbEntity
  8
0
  6
Continuous
 62
     7
370
    25
100
AcDbCircle
 10
1828.2091890423
 20
397.6370285366
 30
0.0
 40
4.550879341322248
100
AcDbArc
 50
0.0033889076
 51
8.8514742656
  0
ARC
  5
683
330
1F
100
AcDbEntity
  8
0
  6
Continuous
 62
     7
370
    25
100
AcDbCircle
 10
1828.2030763611
 20
397.6379049337
 30
0.0
 40
4.543016036886253
100
AcDbArc
 50
171.1442682278
 51
180.0076582037
  0
ARC
  5
684
330
1F
100
AcDbEntity
  8
0
  6
Continuous
 62
     7
370
    25
100
AcDbCircle
 10
1828.2032777642
 20
291.237892764
 30
0.0
 40
4.543217439322667
100
AcDbArc
 50
171.1444649669
 51
180.0075927875
  0
ARC
  5
685
330
1F
100
AcDbEntity
  8
0
  6
Continuous
 62
     7
370
    25
100
AcDbCircle
 10
1850.605987417
 20
291.2369377639
 30
0.0
 40
4.204068289582434
100
AcDbArc
 50
0.0048100525
 51
9.5895941817
  0
ARC
  5
686
330
1F
100
AcDbEntity
  8
0
  6
Continuous
 62
     7
370
    25
100
AcDbCircle
 10
1850.6141069435
 20
291.2369377639
 30
0.0
 40
4.204068289618355
100
AcDbArc
 50
170.4104058184
 51
179.9951899475
  0
ARC
  5
687
330
1F
100
AcDbEntity
  8
0
  6
Continuous
 62
     7
370
    25
100
AcDbCircle
 10
1828.2089875246
 20
291.2370163591
 30
0.0
 40
4.551080859338584
100
AcDbArc
 50
0.0034538203
 51
8.8512779301
  0
ARC
  5
688
330
1F
100
AcDbEntity
  8
0
  6
Continuous
 62
     7
370
    25
100
AcDbCircle
 10
1850.6142931957
 20
397.6376558417
 30
0.0
 40
4.204254542243929
100
AcDbArc
 50
180.0048806323
 51
189.5893813037
  0
ARC
  5
689
330
1F
100
AcDbEntity
  8
0
  6
Continuous
 62
     7
370
    25
100
AcDbCircle
 10
1828.2091893345
 20
397.6375459918
 30
0.0
 40
4.550879047936811
100
AcDbArc
 50
351.1485255457
 51
359.9968741229
  0
ARC
  5
68A
330
1F
100
AcDbEntity
  8
0
  6
Continuous
 62
     7
370
    25
100
AcDbCircle
 10
1828.2030768808
 20
397.6366696837
 30
0.0
 40
4.543016559434944
100
AcDbArc
 50
179.992079433
 51
188.8557314936
  0
ARC
  5
68B
330
1F
100
AcDbEntity
  8
0
  6
Continuous
 62
     7
370
    25
100
AcDbCircle
 10
1850.6058011648
 20
397.6376558417
 30
0.0
 40
4.204254542208003
100
AcDbArc
 50
350.4106186963
 51
359.9951193677
  0
ARC
  5
68C
330
1F
100
AcDbEntity
  8
0
  6
Continuous
 62
     7
370
    25
100
AcDbCircle
 10
1850.605987417
 20
291.2376436375
 30
0.0
 40
4.204068289583104
100
AcDbArc
 50
350.4104058183
 51
359.9951899475
  0
ARC
  5
68D
330
1F
100
AcDbEntity
  8
0
  6
Continuous
 62
     7
370
    25
100
AcDbCircle
 10
1828.2032777642
 20
291.2366886374
 30
0.0
 40
4.543217439324016
100
AcDbArc
 50
179.9924072125
 51
188.8555350331
  0
ARC
  5
68E
330
1F
100
AcDbEntity
  8
0
  6
Continuous
 62
     7
370
    25
100
AcDbCircle
 10
1850.6141069435
 20
291.2376436375
 30
0.0
 40
4.204068289619038
100
AcDbArc
 50
180.0048100525
 51
189.5895941816
  0
ARC
  5
68F
330
1F
100
AcDbEntity
  8
0
  6
Continuous
 62
     7
370
    25
100
AcDbCircle
 10
1828.2089875246
 20
291.2375650423
 30
0.0
 40
4.551080859339721
100
AcDbArc
 50
351.1487220699
 51
359.9965461797
  0
DIMENSION
  5
690
330
1F
100
AcDbEntity
  8
FORMAT
100
AcDbDimension
  2
_D_33
 10
1734.5552190608
 20
291.2372903663
 30
0.0
 11
1734.5552190608
 21
227.8009555656
 31
0.0
 70
   160
  1
<>
 71
     2
 42
-1.0
  3
SLDDIMSTYLE5
100
AcDbAlignedDimension
 13
1795.8314861842
 23
280.7372903663
 33
0.0
 14
1820.1600536891
 24
291.2372903663
 34
0.0
 50
90.0
100
AcDbRotatedDimension
  0
DIMENSION
  5
69C
330
1F
100
AcDbEntity
  8
FORMAT
100
AcDbDimension
  2
_D_34
 10
1686.8362640778
 20
397.6372903663
 30
0.0
 11
1686.8362640778
 21
344.4372903663
 31
0.0
 70
   160
  1
<>
 71
     2
 42
-1.0
  3
SLDDIMSTYLE9
100
AcDbAlignedDimension
 13
1828.2100536891
 23
291.2372903663
 33
0.0
 14
1820.1600536891
 24
397.6372903663
 34
0.0
 50
90.0
100
AcDbRotatedDimension
  0
MTEXT
  5
6A7
330
1F
100
AcDbEntity
  8
FORMAT
100
AcDbMText
 10
1829.3885588403
 20
498.4998280345
 30
0.0
 40
35.0
 41
0.0
 71
     2
 72
     1
  1
C (1 : 5)
  7
SLDTEXTSTYLE0
 73
     1
 44
1.0
  0
INSERT
  5
6B3
330
1F
100
AcDbEntity
  8
FORMAT
100
AcDbBlockReference
  2
SW_CENTERMARKSYMBOL_12
 10
1828.2100643702
 20
291.2372907007
 30
0.0
  0
INSERT
  5
6BF
330
1F
100
AcDbEntity
  8
FORMAT
100
AcDbBlockReference
  2
SW_CENTERMARKSYMBOL_13
 10
1828.2100643702
 20
397.6372977102
 30
0.0
  0
ENDSEC
  0
SECTION
  2
OBJECTS
  0
DICTIONARY
  5
C
330
0
100
AcDbDictionary
281
     1
  3
ACAD_GROUP
350
D
  3
ACAD_LAYOUT
350
1A
  3
ACAD_MLINESTYLE
350
17
  3
ACAD_PLOTSETTINGS
350
19
  3
ACAD_PLOTSTYLENAME
350
E
  3
ACAD_SCALELIST
350
47
  3
DWGPROPS
350
6C0
  0
DICTIONARY
  5
D
102
{ACAD_REACTORS
330
C
102
}
330
C
100
AcDbDictionary
281
     1
  0
DICTIONARY
  5
1A
102
{ACAD_REACTORS
330
C
102
}
330
C
100
AcDbDictionary
281
     1
  3
Layout1
350
1E
  3
Layout2
350
26
  3
Model
350
22
  0
DICTIONARY
  5
17
102
{ACAD_REACTORS
330
C
102
}
330
C
100
AcDbDictionary
281
     1
  3
Standard
350
18
  0
DICTIONARY
  5
19
102
{ACAD_REACTORS
330
C
102
}
330
C
100
AcDbDictionary
281
     1
  0
ACDBDICTIONARYWDFLT
  5
E
102
{ACAD_REACTORS
330
C
102
}
330
C
100
AcDbDictionary
281
     1
  3
Normal
350
F
100
AcDbDictionaryWithDefault
340
F
  0
DICTIONARY
  5
47
102
{ACAD_REACTORS
330
C
102
}
330
C
100
AcDbDictionary
281
     1
  3
A0
350
48
  3
A1
350
49
  3
A2
350
4A
  3
A3
350
4B
  3
A4
350
4C
  3
A5
350
4D
  3
A6
350
4E
  3
A7
350
4F
  3
A8
350
50
  3
A9
350
51
  3
B0
350
52
  3
B1
350
53
  3
B2
350
54
  3
B3
350
55
  3
B4
350
56
  3
B5
350
57
  3
B6
350
58
  3
B7
350
59
  3
B8
350
5A
  3
B9
350
5B
  3
C0
350
5C
  3
C1
350
5D
  3
C2
350
5E
  3
C3
350
5F
  3
C4
350
60
  3
C5
350
61
  3
C6
350
62
  3
C7
350
63
  3
C8
350
64
  3
C9
350
65
  3
D0
350
66
  3
D1
350
67
  3
D2
350
68
  0
XRECORD
  5
6C0
102
{ACAD_REACTORS
330
C
102
}
330
C
100
AcDbXrecord
280
     1
  1
DWGPROPS COOKIE
  2

  3

  4

  6

  7

  8
l.eckardt
  9

300
=
301
=
302
=
303
=
304
=
305
=
306
=
307
=
308
=
309
=
 40
0.0
 41
2460077.382024757
 42
2460077.382028854
  1

 90
        0
  0
LAYOUT
  5
1E
102
{ACAD_REACTORS
330
1A
102
}
330
1A
100
AcDbPlotSettings
  1

  2
none_device
  4

  6

 40
0.0
 41
0.0
 42
0.0
 43
0.0
 44
0.0
 45
0.0
 46
0.0
 47
0.0
 48
0.0
 49
0.0
140
0.0
141
0.0
142
1.0
143
1.0
 70
   688
 72
     1
 73
     0
 74
     5
  7

 75
    16
147
1.0
148
0.0
149
0.0
100
AcDbLayout
  1
Layout1
 70
     1
 71
     1
 10
0.0
 20
0.0
 11
420.0
 21
297.0
 12
0.0
 22
0.0
 32
0.0
 14
1.0000000000E+20
 24
1.0000000000E+20
 34
1.0000000000E+20
 15
-1.0000000000E+20
 25
-1.0000000000E+20
 35
-1.0000000000E+20
146
0.0
 13
0.0
 23
0.0
 33
0.0
 16
1.0
 26
0.0
 36
0.0
 17
0.0
 27
1.0
 37
0.0
 76
     0
330
1B
  0
LAYOUT
  5
26
102
{ACAD_REACTORS
330
1A
102
}
330
1A
100
AcDbPlotSettings
  1

  2
none_device
  4

  6

 40
0.0
 41
0.0
 42
0.0
 43
0.0
 44
0.0
 45
0.0
 46
0.0
 47
0.0
 48
0.0
 49
0.0
140
0.0
141
0.0
142
1.0
143
1.0
 70
   688
 72
     1
 73
     0
 74
     5
  7

 75
    16
147
1.0
148
0.0
149
0.0
100
AcDbLayout
  1
Layout2
 70
     1
 71
     2
 10
0.0
 20
0.0
 11
0.0
 21
0.0
 12
0.0
 22
0.0
 32
0.0
 14
0.0
 24
0.0
 34
0.0
 15
0.0
 25
0.0
 35
0.0
146
0.0
 13
0.0
 23
0.0
 33
0.0
 16
1.0
 26
0.0
 36
0.0
 17
0.0
 27
1.0
 37
0.0
 76
     0
330
23
  0
LAYOUT
  5
22
102
{ACAD_REACTORS
330
1A
102
}
330
1A
100
AcDbPlotSettings
  1

  2
none_device
  4
Letter_(8.50_x_11.00_Inches)
  6

 40
6.35
 41
6.35
 42
6.35000508
 43
6.35000508
 44
215.9
 45
279.4
 46
0.0
 47
0.0
 48
0.0
 49
0.0
140
0.0
141
0.0
142
1.0
143
1.0
 70
  1712
 72
     1
 73
     0
 74
     0
  7

 75
     0
147
1.0
148
0.0
149
0.0
100
AcDbLayout
  1
Model
 70
     1
 71
     0
 10
0.0
 20
0.0
 11
2940.0
 21
2079.0
 12
0.0
 22
0.0
 32
0.0
 14
0.0
 24
0.0
 34
0.0
 15
2940.0
 25
2079.0
 35
0.0
146
0.0
 13
0.0
 23
0.0
 33
0.0
 16
1.0
 26
0.0
 36
0.0
 17
0.0
 27
1.0
 37
0.0
 76
     0
330
1F
331
29
  0
MLINESTYLE
  5
18
102
{ACAD_REACTORS
330
17
102
}
330
17
100
AcDbMlineStyle
  2
Standard
 70
     0
  3

 62
   256
 51
90.0
 52
90.0
 71
     2
 49
0.5
 62
   256
  6
BYLAYER
 49
-0.5
 62
   256
  6
BYLAYER
  0
ACDBPLACEHOLDER
  5
F
102
{ACAD_REACTORS
330
E
102
}
330
E
  0
SCALE
  5
48
102
{ACAD_REACTORS
330
47
102
}
330
47
100
AcDbScale
 70
     0
300
1:1
140
1.0
141
1.0
290
     1
  0
SCALE
  5
49
102
{ACAD_REACTORS
330
47
102
}
330
47
100
AcDbScale
 70
     0
300
1:2
140
1.0
141
2.0
290
     0
  0
SCALE
  5
4A
102
{ACAD_REACTORS
330
47
102
}
330
47
100
AcDbScale
 70
     0
300
1:4
140
1.0
141
4.0
290
     0
  0
SCALE
  5
4B
102
{ACAD_REACTORS
330
47
102
}
330
47
100
AcDbScale
 70
     0
300
1:5
140
1.0
141
5.0
290
     0
  0
SCALE
  5
4C
102
{ACAD_REACTORS
330
47
102
}
330
47
100
AcDbScale
 70
     0
300
1:8
140
1.0
141
8.0
290
     0
  0
SCALE
  5
4D
102
{ACAD_REACTORS
330
47
102
}
330
47
100
AcDbScale
 70
     0
300
1:10
140
1.0
141
10.0
290
     0
  0
SCALE
  5
4E
102
{ACAD_REACTORS
330
47
102
}
330
47
100
AcDbScale
 70
     0
300
1:16
140
1.0
141
16.0
290
     0
  0
SCALE
  5
4F
102
{ACAD_REACTORS
330
47
102
}
330
47
100
AcDbScale
 70
     0
300
1:20
140
1.0
141
20.0
290
     0
  0
SCALE
  5
50
102
{ACAD_REACTORS
330
47
102
}
330
47
100
AcDbScale
 70
     0
300
1:30
140
1.0
141
30.0
290
     0
  0
SCALE
  5
51
102
{ACAD_REACTORS
330
47
102
}
330
47
100
AcDbScale
 70
     0
300
1:40
140
1.0
141
40.0
290
     0
  0
SCALE
  5
52
102
{ACAD_REACTORS
330
47
102
}
330
47
100
AcDbScale
 70
     0
300
1:50
140
1.0
141
50.0
290
     0
  0
SCALE
  5
53
102
{ACAD_REACTORS
330
47
102
}
330
47
100
AcDbScale
 70
     0
300
1:100
140
1.0
141
100.0
290
     0
  0
SCALE
  5
54
102
{ACAD_REACTORS
330
47
102
}
330
47
100
AcDbScale
 70
     0
300
2:1
140
2.0
141
1.0
290
     0
  0
SCALE
  5
55
102
{ACAD_REACTORS
330
47
102
}
330
47
100
AcDbScale
 70
     0
300
4:1
140
4.0
141
1.0
290
     0
  0
SCALE
  5
56
102
{ACAD_REACTORS
330
47
102
}
330
47
100
AcDbScale
 70
     0
300
8:1
140
8.0
141
1.0
290
     0
  0
SCALE
  5
57
102
{ACAD_REACTORS
330
47
102
}
330
47
100
AcDbScale
 70
     0
300
10:1
140
10.0
141
1.0
290
     0
  0
SCALE
  5
58
102
{ACAD_REACTORS
330
47
102
}
330
47
100
AcDbScale
 70
     0
300
100:1
140
100.0
141
1.0
290
     0
  0
SCALE
  5
59
102
{ACAD_REACTORS
330
47
102
}
330
47
100
AcDbScale
 70
     0
300
1/128" = 1'-0"
140
0.0078125
141
12.0
290
     0
  0
SCALE
  5
5A
102
{ACAD_REACTORS
330
47
102
}
330
47
100
AcDbScale
 70
     0
300
1/64" = 1'-0"
140
0.015625
141
12.0
290
     0
  0
SCALE
  5
5B
102
{ACAD_REACTORS
330
47
102
}
330
47
100
AcDbScale
 70
     0
300
1/32" = 1'-0"
140
0.03125
141
12.0
290
     0
  0
SCALE
  5
5C
102
{ACAD_REACTORS
330
47
102
}
330
47
100
AcDbScale
 70
     0
300
1/16" = 1'-0"
140
0.0625
141
12.0
290
     0
  0
SCALE
  5
5D
102
{ACAD_REACTORS
330
47
102
}
330
47
100
AcDbScale
 70
     0
300
3/32" = 1'-0"
140
0.09375
141
12.0
290
     0
  0
SCALE
  5
5E
102
{ACAD_REACTORS
330
47
102
}
330
47
100
AcDbScale
 70
     0
300
1/8" = 1'-0"
140
0.125
141
12.0
290
     0
  0
SCALE
  5
5F
102
{ACAD_REACTORS
330
47
102
}
330
47
100
AcDbScale
 70
     0
300
3/16" = 1'-0"
140
0.1875
141
12.0
290
     0
  0
SCALE
  5
60
102
{ACAD_REACTORS
330
47
102
}
330
47
100
AcDbScale
 70
     0
300
1/4" = 1'-0"
140
0.25
141
12.0
290
     0
  0
SCALE
  5
61
102
{ACAD_REACTORS
330
47
102
}
330
47
100
AcDbScale
 70
     0
300
3/8" = 1'-0"
140
0.375
141
12.0
290
     0
  0
SCALE
  5
62
102
{ACAD_REACTORS
330
47
102
}
330
47
100
AcDbScale
 70
     0
300
1/2" = 1'-0"
140
0.5
141
12.0
290
     0
  0
SCALE
  5
63
102
{ACAD_REACTORS
330
47
102
}
330
47
100
AcDbScale
 70
     0
300
3/4" = 1'-0"
140
0.75
141
12.0
290
     0
  0
SCALE
  5
64
102
{ACAD_REACTORS
330
47
102
}
330
47
100
AcDbScale
 70
     0
300
1" = 1'-0"
140
1.0
141
12.0
290
     0
  0
SCALE
  5
65
102
{ACAD_REACTORS
330
47
102
}
330
47
100
AcDbScale
 70
     0
300
1-1/2" = 1'-0"
140
1.5
141
12.0
290
     0
  0
SCALE
  5
66
102
{ACAD_REACTORS
330
47
102
}
330
47
100
AcDbScale
 70
     0
300
3" = 1'-0"
140
3.0
141
12.0
290
     0
  0
SCALE
  5
67
102
{ACAD_REACTORS
330
47
102
}
330
47
100
AcDbScale
 70
     0
300
6" = 1'-0"
140
6.0
141
12.0
290
     0
  0
SCALE
  5
68
102
{ACAD_REACTORS
330
47
102
}
330
47
100
AcDbScale
 70
     0
300
1'-0" = 1'-0"
140
12.0
141
12.0
290
     0
  0
ENDSEC
  0
EOF
